<?xml version="1.0" standalone="no"?>
<!DOCTYPE svg PUBLIC "-//W3C//DTD SVG 1.1//EN" "http://www.w3.org/Graphics/SVG/1.1/DTD/svg11.dtd" >
<svg xmlns="http://www.w3.org/2000/svg">
<defs>
  <font id="Allianz-Icons" horiz-adv-x="1000">
    <font-face font-family="Allianz-Icons"
      units-per-em="1000" ascent="1000"
      descent="0" />
    <missing-glyph horiz-adv-x="0" />
    <glyph glyph-name="c-icon--arrow-up"
      unicode="&#xE900;"
      horiz-adv-x="1000" d="M696.125 654.4583333333334L529.4583333333334 821.125C525.5833333333334 825 520.9583333333333 828.0833333333334 515.875 830.1666666666667C505.6666666666666 834.375 494.25 834.375 484.0416666666667 830.1666666666667C478.9583333333333 828.0833333333334 474.3333333333333 825 470.4583333333333 821.125L303.7916666666667 654.4583333333334C296 646.625 291.5833333333333 636.0416666666667 291.5833333333333 625C291.5833333333333 602.125 310.4166666666667 583.2916666666667 333.2916666666667 583.2916666666667C344.375 583.2916666666667 354.9583333333333 587.7083333333334 362.7916666666667 595.5416666666667L458.3333333333333 691.0833333333334L458.3333333333333 208.3333333333334C458.3333333333333 185.4583333333334 477.125 166.6666666666668 500 166.6666666666668C522.875 166.6666666666668 541.6666666666666 185.4583333333334 541.6666666666666 208.3333333333334L541.6666666666666 691.0833333333334L637.2083333333333 595.5416666666667C644.9583333333333 588.0416666666667 655.3749999999999 583.8333333333334 666.1666666666666 583.8333333333334C689 583.8333333333334 707.8333333333333 602.6666666666667 707.8333333333333 625.5C707.8333333333333 636.2916666666667 703.625 646.7083333333334 696.125 654.4583333333334z" />
    <glyph glyph-name="c-icon--arrow-down"
      unicode="&#xE901;"
      horiz-adv-x="1000" d="M696.125 404.4583333333334A41.6666666666667 41.6666666666667 0 0 1 637.2083333333334 404.4583333333334L541.6666666666666 308.9166666666668V791.6666666666667A41.6666666666667 41.6666666666667 0 0 1 458.3333333333333 791.6666666666667V308.9166666666668L362.7916666666667 404.4583333333334A41.6666666666667 41.6666666666667 0 1 1 303.875 345.5416666666668L470.5416666666667 178.875A41.6666666666667 41.6666666666667 0 0 1 529.5416666666667 178.875L696.2083333333334 345.5416666666667A41.6666666666667 41.6666666666667 0 0 1 696.125 404.4583333333334z" />
    <glyph glyph-name="c-icon--arrow-left"
      unicode="&#xE902;"
      horiz-adv-x="1000" d="M791.6666666666666 541.6666666666667H308.9166666666667L404.4583333333333 637.25A41.6666666666667 41.6666666666667 0 1 1 345.5416666666667 696.1666666666667L178.875 529.5A41.6666666666667 41.6666666666667 0 0 1 169.8333333333333 484.0833333333334A41.6666666666667 41.6666666666667 0 0 1 178.875 470.4583333333334L345.5416666666667 303.7916666666668A41.6666666666667 41.6666666666667 0 0 1 404.4583333333333 362.7083333333334L308.9166666666667 458.3333333333334H791.6666666666666A41.6666666666667 41.6666666666667 0 0 1 791.6666666666666 541.6666666666667z" />
    <glyph glyph-name="c-icon--arrow-right"
      unicode="&#xE903;"
      horiz-adv-x="1000" d="M830.1249999999999 484.0833333333334A41.9166666666667 41.9166666666667 0 0 1 821.0833333333333 529.5416666666667L654.4166666666666 696.2083333333333A41.6666666666667 41.6666666666667 0 1 1 595.5 637.2916666666667L691.0833333333333 541.6666666666667H208.3333333333333A41.6666666666667 41.6666666666667 0 0 1 208.3333333333333 458.3333333333334H691.0833333333333L595.5416666666666 362.7916666666668A41.6666666666667 41.6666666666667 0 1 1 654.4583333333333 303.875L821.125 470.5416666666666A41.25 41.25 0 0 1 830.1249999999999 484.0833333333334z" />
    <glyph glyph-name="c-icon--arrow-up-slim"
      unicode="&#xE904;"
      horiz-adv-x="1000" d="M268.5546875 728.8277083333334C268.5546875 724.9214583333334 268.5546875 721.0152083333334 272.4609375 716.1323958333334C281.25 708.3198958333334 293.9453125 708.3198958333334 301.7578125 712.2261458333334L472.65625 849.9214583333334L477.5390625 103.8277083333334C477.5390625 92.1089583333334 485.3515625 83.3198958333334 498.046875 83.3198958333334C509.7656249999999 83.3198958333334 518.5546875 92.1089583333334 518.5546875 103.8277083333334L518.5546875 853.8277083333334L693.359375 712.2261458333334C702.1484375 704.4136458333334 714.84375 708.3198958333334 722.65625 716.1323958333334C731.4453125 724.9214583333334 726.5625 737.6167708333334 718.75 745.4292708333334L510.7421874999999 912.4214583333334C501.9531249999999 920.2339583333334 485.3515625 916.3277083333334 477.5390625 908.5152083333334L272.4609375 745.4292708333334C272.4609375 743.4761458333334 271.484375 740.5464583333334 270.5078125 737.6167708333334C269.53125 733.7105208333334 268.5546875 730.7808333333334 268.5546875 728.8277083333334z" />
    <glyph glyph-name="c-icon--arrow-down-slim"
      unicode="&#xE905;"
      horiz-adv-x="1000" d="M268.5546875 271.1723958333334C268.5546875 275.0786458333334 268.5546875 279.9614583333334 272.4609375 283.8677083333334C281.25 291.6802083333334 293.9453125 291.6802083333334 301.7578125 287.7739583333334L472.65625 150.0786458333335L477.5390625 896.1723958333333C477.5390625 908.8677083333334 485.3515625 916.6802083333334 498.046875 916.6802083333334C509.7656249999999 916.6802083333334 518.5546875 908.8677083333334 518.5546875 896.1723958333333L518.5546875 146.1723958333335L693.359375 287.7739583333334C702.1484375 296.5630208333334 714.84375 291.6802083333334 722.65625 283.8677083333334C731.4453125 276.0552083333334 726.5625 262.3833333333334 718.75 254.5708333333334L510.7421874999999 87.5786458333334C501.9531249999999 79.7661458333334 485.3515625 83.6723958333334 477.5390625 92.4614583333334L272.4609375 254.5708333333334C272.4609375 256.5239583333334 271.484375 259.4536458333334 270.5078125 263.3598958333334C269.53125 266.2895833333334 268.5546875 269.2192708333334 268.5546875 271.1723958333334z" />
    <glyph glyph-name="c-icon--arrow-left-slim"
      unicode="&#xE906;"
      horiz-adv-x="1000" d="M915.8333333333331 520.8333333333334H133.625L264.75 651.9166666666667A20.8333333333333 20.8333333333333 0 1 1 235.25 681.375L68.5833333333333 514.7083333333335A20.8333333333333 20.8333333333333 0 0 1 64.0833333333333 492.0000000000001A20.375 20.375 0 0 1 68.5833333333333 485.2083333333334L235.25 318.5416666666669A20.8333333333333 20.8333333333333 0 0 1 264.75 348.0000000000003L133.625 479.1666666666667H915.8333333333331A20.8333333333333 20.8333333333333 0 1 1 915.8333333333331 520.8333333333334z" />
    <glyph glyph-name="c-icon--arrow-right-slim"
      unicode="&#xE907;"
      horiz-adv-x="1000" d="M935.0833333333331 492.0416666666667A20.8333333333333 20.8333333333333 0 0 1 935.0833333333331 507.9583333333333A20.25 20.25 0 0 1 930.5416666666666 514.75L763.8749999999999 681.4166666666666A20.8333333333333 20.8333333333333 0 1 1 734.4166666666665 651.9583333333333L865.5416666666666 520.8333333333334H83.3333333333333A20.8333333333333 20.8333333333333 0 0 1 83.3333333333333 479.1666666666667H865.5416666666666L734.4583333333333 348.0416666666668A20.8333333333333 20.8333333333333 0 0 1 763.9166666666666 318.5833333333334L930.5833333333331 485.2500000000001A19.875 19.875 0 0 1 935.0833333333331 492.0416666666667z" />
    <glyph glyph-name="c-icon--paperclip"
      unicode="&#xE908;"
      horiz-adv-x="1000" d="M500 50A221.0416666666666 221.0416666666666 0 0 0 279.1666666666667 270.8333333333334V791.6666666666667A158.3333333333333 158.3333333333333 0 0 0 595.8333333333334 791.6666666666667V354.1666666666668A95.8333333333333 95.8333333333333 0 0 0 404.1666666666667 354.1666666666668V707.75A33.3333333333333 33.3333333333333 0 0 0 470.8333333333333 707.75V354.1666666666668A29.1666666666667 29.1666666666667 0 0 1 529.1666666666666 354.1666666666668V791.6666666666667A91.6666666666667 91.6666666666667 0 1 1 345.8333333333334 791.6666666666667V270.8333333333334A154.1666666666667 154.1666666666667 0 0 1 654.1666666666666 270.8333333333334V707.75A33.3333333333333 33.3333333333333 0 0 0 720.8333333333334 707.75V270.8333333333334A221.0416666666666 221.0416666666666 0 0 0 500 50z" />
    <glyph glyph-name="c-icon--chevron-up"
      unicode="&#xE909;"
      horiz-adv-x="1000" d="M819.4583333333334 404.4583333333334L527.7916666666667 696.125A41.6666666666667 41.6666666666667 0 0 1 468.8750000000001 696.125L177.2083333333334 404.4583333333334A41.6666666666667 41.6666666666667 0 1 1 236.1250000000001 345.5416666666668L498.3333333333333 607.75L760.5416666666666 345.5416666666667A41.6666666666667 41.6666666666667 0 0 1 819.4583333333334 404.4583333333334z" />
    <glyph glyph-name="c-icon--chevron-down"
      unicode="&#xE90A;"
      horiz-adv-x="1000" d="M822.7916666666666 654.4583333333334C806.625 670.625 780.0416666666666 670.625 763.8749999999999 654.4583333333334L501.6666666666666 392.25L239.4583333333333 654.4583333333334C231.7083333333333 661.9583333333334 221.2916666666667 666.1666666666667 210.5 666.1666666666667C187.6666666666666 666.1666666666667 168.8333333333333 647.3333333333333 168.8333333333333 624.5C168.8333333333333 613.7083333333333 173.0416666666666 603.2916666666666 180.5416666666667 595.5416666666667L472.2083333333333 303.875C488.375 287.7083333333334 514.9583333333333 287.7083333333334 531.125 303.875L822.7916666666666 595.5416666666667C838.9583333333334 611.7083333333333 838.9583333333334 638.2916666666667 822.7916666666666 654.4583333333334z" />
    <glyph glyph-name="c-icon--chevron-left"
      unicode="&#xE90B;"
      horiz-adv-x="1000" d="M392.25 498.3333333333334L654.4583333333334 760.5416666666667C662.5833333333333 768.375 667.1666666666666 779.2083333333334 667.1666666666666 790.5C667.1666666666666 813.375 648.375 832.1666666666667 625.5 832.1666666666667C614.2083333333333 832.1666666666667 603.375 827.5833333333334 595.5416666666666 819.4583333333334L303.875 527.7916666666667C287.7083333333333 511.625 287.7083333333333 485.0416666666667 303.875 468.875L595.5416666666666 177.2083333333334C603.2916666666666 169.7083333333334 613.7083333333333 165.5000000000001 624.5 165.5000000000001C647.3333333333333 165.5000000000001 666.1666666666666 184.3333333333334 666.1666666666666 207.1666666666668C666.1666666666666 217.9583333333335 661.9583333333334 228.3750000000001 654.4583333333334 236.1250000000001L392.25 498.3333333333334z" />
    <glyph glyph-name="c-icon--chevron-right"
      unicode="&#xE90C;"
      horiz-adv-x="1000" d="M696.125 531.125L404.4583333333333 822.7916666666667C396.7083333333334 830.2916666666666 386.2916666666667 834.5 375.5 834.5C352.6666666666667 834.5 333.8333333333333 815.6666666666666 333.8333333333333 792.8333333333333C333.8333333333333 782.0416666666667 338.0416666666667 771.625 345.5416666666667 763.875L607.75 501.6666666666667L345.5416666666667 239.4583333333334C337.4166666666667 231.6250000000001 332.8333333333333 220.7916666666668 332.8333333333333 209.5C332.8333333333333 186.625 351.625 167.8333333333334 374.5 167.8333333333334C385.7916666666667 167.8333333333334 396.625 172.4166666666668 404.4583333333333 180.5416666666666L696.125 472.2083333333334C712.2916666666666 488.3750000000001 712.2916666666666 514.9583333333334 696.125 531.125z" />
    <glyph glyph-name="c-icon--bookmark-o"
      unicode="&#xE90D;"
      horiz-adv-x="1000" d="M708.3333333333333 808.3333333333334C717.4583333333334 808.3333333333334 724.9999999999999 800.7916666666667 724.9999999999999 791.6666666666667L724.9999999999999 226.0833333333333L526.25 311.2916666666668L500 322.5416666666668L473.7499999999999 311.2916666666668L275 226.0833333333333L275 791.6666666666667C275 800.7916666666667 282.5416666666667 808.3333333333334 291.6666666666667 808.3333333333334L708.3333333333333 808.3333333333334M708.3333333333333 875L291.6666666666667 875C245.9583333333333 875 208.3333333333333 837.375 208.3333333333333 791.6666666666667L208.3333333333333 125L500 250L791.6666666666666 125L791.6666666666666 791.6666666666667C791.6666666666666 837.375 754.0416666666666 875 708.3333333333333 875z" />
    <glyph glyph-name="c-icon--calendar"
      unicode="&#xE90E;"
      horiz-adv-x="1000" d="M875 875L791.6666666666666 875L791.6666666666666 916.6666666666666C791.6666666666666 939.5416666666666 772.8749999999999 958.3333333333334 750 958.3333333333334C727.125 958.3333333333334 708.3333333333333 939.5416666666666 708.3333333333333 916.6666666666666L708.3333333333333 875L291.6666666666667 875L291.6666666666667 916.6666666666666C291.6666666666667 939.5416666666666 272.875 958.3333333333334 250 958.3333333333334C227.125 958.3333333333334 208.3333333333333 939.5416666666666 208.3333333333333 916.6666666666666L208.3333333333333 875L125 875C102.125 875 83.3333333333333 856.2083333333334 83.3333333333333 833.3333333333334L83.3333333333333 125C83.3333333333333 102.1250000000001 102.125 83.3333333333334 125 83.3333333333334L875 83.3333333333334C897.8749999999999 83.3333333333334 916.6666666666666 102.1250000000001 916.6666666666666 125L916.6666666666666 833.3333333333334C916.6666666666666 856.2083333333334 897.8749999999999 875 875 875zM849.9999999999999 150.0000000000001L150 150.0000000000001L150 666.6666666666667L849.9999999999999 666.6666666666667L849.9999999999999 150.0000000000001zM383.3333333333333 375C383.3333333333333 398 364.6666666666667 416.6666666666668 341.6666666666667 416.6666666666668L258.3333333333333 416.6666666666668C235.3333333333333 416.6666666666668 216.6666666666667 398 216.6666666666667 375L216.6666666666667 291.6666666666668C216.6666666666667 268.6666666666668 235.3333333333333 250 258.3333333333333 250L341.6666666666667 250C364.6666666666667 250 383.3333333333333 268.6666666666668 383.3333333333333 291.6666666666668L383.3333333333333 375z" />
    <glyph glyph-name="c-icon--arrow-upload"
      unicode="&#xE90F;"
      horiz-adv-x="1000" d="M333.3333333333333 626.2083333333334C344.375 626.2083333333334 355 630.625 362.7916666666667 638.4166666666666L458.3333333333333 733.9583333333334L458.3333333333333 334.5416666666668C458.3333333333333 311.6666666666668 477.125 292.875 500 292.875C522.875 292.875 541.6666666666666 311.6666666666668 541.6666666666666 334.5416666666668L541.6666666666666 733.9583333333334L637.2083333333333 638.4166666666666C644.9583333333333 630.9166666666667 655.3749999999999 626.7083333333334 666.1666666666666 626.7083333333334C689 626.7083333333334 707.8333333333333 645.5416666666667 707.8333333333333 668.375C707.8333333333333 679.1666666666667 703.625 689.5833333333334 696.125 697.3333333333333L529.4583333333334 864C525.5833333333334 867.875 520.9583333333333 870.9583333333334 515.875 873.0416666666666C505.6666666666666 877.25 494.25 877.25 484.0416666666667 873.0416666666666C478.9583333333333 870.9583333333334 474.3333333333333 867.875 470.4583333333333 864L303.7916666666667 697.3333333333333C296 689.5416666666667 291.5833333333333 678.9166666666667 291.5833333333333 667.875C291.5833333333333 645 310.4166666666667 626.2083333333334 333.25 626.2083333333334C333.2916666666667 626.2083333333334 333.2916666666667 626.2083333333334 333.3333333333333 626.2083333333334zM833.3333333333333 325.0000000000001C815.0416666666666 325.0000000000001 799.9999999999999 309.9583333333334 799.9999999999999 291.6666666666668L799.9999999999999 200.0000000000001L200 200.0000000000001L200 291.6666666666668C200 309.9583333333334 184.9583333333333 325.0000000000001 166.6666666666667 325.0000000000001C148.375 325.0000000000001 133.3333333333334 309.9583333333334 133.3333333333334 291.6666666666668L133.3333333333334 166.6666666666668C133.3333333333334 148.375 148.375 133.3333333333334 166.6666666666667 133.3333333333334L833.3333333333333 133.3333333333334C851.625 133.3333333333334 866.6666666666666 148.375 866.6666666666666 166.6666666666668L866.6666666666666 291.6666666666668C866.6666666666666 309.9583333333334 851.625 325.0000000000001 833.3333333333333 325.0000000000001z" />
    <glyph glyph-name="c-icon--phone-o"
      unicode="&#xE910;"
      horiz-adv-x="1000" d="M740.7083333333334 91.6666666666667C637.6666666666667 91.6666666666667 480.4583333333333 182.4583333333333 331.3333333333334 331.5833333333333C166.6666666666667 496.2916666666667 68 685.3333333333334 96.9166666666667 780.9166666666667C111.625 829.5416666666666 192.75 892.2916666666666 245.125 905.4166666666666A71.125 71.125 0 0 0 316.6666666666667 889.625A473.3333333333333 473.3333333333333 0 0 0 436.625 687.0416666666667A88.4583333333333 88.4583333333333 0 0 0 401.125 603.4583333333334L394.6249999999999 597.1666666666667C392.1666666666667 594.7083333333335 387.7083333333332 590.5833333333335 382.5833333333333 586C380.3749999999999 584 378 581.8333333333334 375.75 579.8333333333334A1215.4583333333333 1215.4583333333333 0 0 1 579.6666666666666 375.8750000000001C581.8333333333333 378.2083333333334 583.8333333333333 380.6666666666668 585.9999999999999 382.9583333333334C590.5416666666665 387.9583333333334 594.5833333333333 392.3333333333334 597.0416666666666 394.75L603.2499999999999 401.2083333333334A89.1666666666667 89.1666666666667 0 0 0 686.8333333333333 436.8333333333334A473.6249999999999 473.6249999999999 0 0 0 889.4999999999999 316.8333333333334A71.5416666666667 71.5416666666667 0 0 0 905.2916666666666 245.3333333333333V245.3333333333333A253.125 253.125 0 0 0 780.8333333333334 97.125A140.4166666666667 140.4166666666667 0 0 0 740.7083333333334 91.6666666666667zM269.5416666666667 842.5C270.0416666666667 841.875 266.9583333333333 842.1666666666667 261.2083333333333 840.75A208.3333333333334 208.3333333333334 0 0 1 160.625 761.5833333333334C142.125 700.3333333333334 225.1666666666667 531.7916666666667 378.375 378.5416666666668C544.7916666666666 212.2083333333334 699.7916666666667 141.9166666666666 761.375 160.7916666666668A203.4166666666666 203.4166666666666 0 0 1 840.5416666666665 261.4583333333335A22.1666666666667 22.1666666666667 0 0 1 841.3749999999999 270.8750000000001A413.375 413.375 0 0 1 673.8333333333331 371.2916666666668C669.1249999999999 372.5000000000001 664.6249999999999 369.2916666666668 651.8333333333331 355.5416666666668C649.0416666666665 352.5833333333335 646.3333333333331 349.7500000000001 643.4999999999999 347.2083333333335C641.6249999999999 345.3750000000001 638.6666666666665 342.0000000000001 635.1666666666665 338.2500000000001C615.6249999999999 316.6250000000003 605.9999999999999 305.7500000000001 589.9583333333333 303.8750000000001C576.6249999999999 302.5416666666669 549.1249999999999 299.7083333333335 423.4999999999999 425.2500000000001C299.25 550 302.2916666666667 577.25 303.75 590.2916666666667C305.4583333333333 606.2083333333333 316.25 616 337.875 635.5C341.7083333333333 638.9166666666667 345.125 641.9583333333333 346.9583333333333 643.8333333333333C349.6666666666667 646.5416666666665 352.5416666666667 649.25 355.5 652.1666666666665C369.125 664.9166666666665 372.1666666666667 669.25 371.25 674.125A412.125 412.125 0 0 1 269.5416666666667 842.5zM591.25 369.5z" />
    <glyph glyph-name="c-icon--check"
      unicode="&#xE911;"
      horiz-adv-x="1000" d="M380.875 250A41.6666666666667 41.6666666666667 0 0 0 351.4166666666667 262.2083333333334L173 440.5833333333333A41.6666666666667 41.6666666666667 0 0 0 231.9166666666666 499.4999999999999L380.8749999999999 350.5833333333333L768.0833333333331 737.7916666666665A41.6666666666667 41.6666666666667 0 0 0 826.9999999999999 678.8749999999999L410.3333333333333 262.2083333333334A41.6666666666667 41.6666666666667 0 0 0 380.8749999999999 250z" />
    <glyph glyph-name="c-icon--check-circle"
      unicode="&#xE912;"
      horiz-adv-x="1000" d="M500 958.3333333333334A458.3333333333333 458.3333333333333 0 1 1 958.3333333333331 500A458.3333333333333 458.3333333333333 0 0 1 500 958.3333333333334zM731.7916666666666 622.25L440.125 330.5833333333333A33.3333333333333 33.3333333333333 0 0 0 393.0416666666667 330.5833333333333L268.0416666666667 455.5833333333333A33.3333333333333 33.3333333333333 0 1 0 315.125 502.6666666666666L416.6666666666667 401.3749999999999L684.7916666666666 669.4166666666665A33.3333333333333 33.3333333333333 0 0 0 731.8749999999999 622.2916666666665z" />
    <glyph glyph-name="c-icon--close"
      unicode="&#xE913;"
      horiz-adv-x="1000" d="M558.9166666666666 500L779.4583333333334 720.5416666666667A41.6666666666667 41.6666666666667 0 1 1 720.5416666666666 779.4583333333334L500 558.9166666666667L279.4583333333333 779.4583333333334A41.6666666666667 41.6666666666667 0 0 1 220.5416666666667 720.5416666666667L441.0833333333333 500L220.5416666666667 279.4583333333334A41.6666666666667 41.6666666666667 0 1 1 279.4583333333333 220.5416666666666L500 441.0833333333334L720.5416666666666 220.5416666666666A41.6666666666667 41.6666666666667 0 0 1 779.4583333333334 279.4583333333334z" />
    <glyph glyph-name="c-icon--close-circle"
      unicode="&#xE914;"
      horiz-adv-x="1000" d="M500 958.3333333333334A458.3333333333333 458.3333333333333 0 1 1 958.3333333333331 500A458.3333333333333 458.3333333333333 0 0 1 500 958.3333333333334zM690.2083333333334 356.9166666666668A33.3333333333333 33.3333333333333 0 1 0 643.1250000000001 309.7916666666669L500 452.875L356.875 309.7916666666667A33.3333333333333 33.3333333333333 0 1 0 309.7916666666667 356.9166666666667L452.8749999999999 500L309.7916666666667 643.125A33.3333333333333 33.3333333333333 0 0 0 356.875 690.25L500 547.125L643.125 690.25A33.3333333333333 33.3333333333333 0 0 0 690.2083333333334 643.125L547.125 500z" />
    <glyph glyph-name="c-icon--credit-card-o"
      unicode="&#xE915;"
      horiz-adv-x="1000" d="M833.3333333333333 833.3333333333334H166.6666666666667A83.5833333333333 83.5833333333333 0 0 1 83.3333333333333 750V250A83.5833333333333 83.5833333333333 0 0 1 166.6666666666667 166.6666666666668H833.3333333333333A83.5833333333333 83.5833333333333 0 0 1 916.6666666666666 250V750A83.5833333333333 83.5833333333333 0 0 1 833.3333333333333 833.3333333333334zM166.6666666666667 766.6666666666667H833.3333333333333A16.875 16.875 0 0 0 849.9999999999999 750V666.6666666666667H150V750A16.875 16.875 0 0 0 166.6666666666667 766.6666666666667zM833.3333333333333 233.3333333333335H166.6666666666667A16.875 16.875 0 0 0 150 250V500H849.9999999999999V250A16.875 16.875 0 0 0 833.3333333333333 233.3333333333335zM750 366.6666666666668H666.6666666666666A33.3333333333333 33.3333333333333 0 0 1 666.6666666666666 300H750A33.3333333333333 33.3333333333333 0 0 1 750 366.6666666666667z" />
    <glyph glyph-name="c-icon--trash"
      unicode="&#xE916;"
      horiz-adv-x="1000" d="M791.6666666666666 833.3333333333334H625A41.7879166666667 41.7879166666667 0 0 1 583.3333333333333 875H416.6666666666667A41.7879166666667 41.7879166666667 0 0 1 375 833.3333333333334H208.3333333333333A41.6666666666667 41.6666666666667 0 0 1 208.3333333333333 750H791.6666666666666A41.6666666666667 41.6666666666667 0 0 1 791.6666666666666 833.3333333333334zM208.3333333333333 208.3333333333334A125.37125 125.37125 0 0 1 333.3333333333333 83.3333333333334H666.6666666666666A125.37125 125.37125 0 0 1 791.6666666666666 208.3333333333334V708.3333333333334H208.3333333333333zM620.4020833333333 541.6566666666668A27.0995833333333 27.0995833333333 0 0 0 674.6012499999999 541.6566666666668V249.9900000000001A27.0995833333333 27.0995833333333 0 1 0 620.4020833333333 249.9900000000001zM474.56875 541.6566666666668A27.0995833333333 27.0995833333333 0 0 0 528.7679166666666 541.6566666666668V249.9900000000001A27.0995833333333 27.0995833333333 0 0 0 474.56875 249.9900000000001zM328.7354166666667 541.6566666666668A27.0995833333333 27.0995833333333 0 0 0 382.9345833333333 541.6566666666668V249.9900000000001A27.0995833333333 27.0995833333333 0 0 0 328.7354166666667 249.9900000000001z" />
    <glyph glyph-name="c-icon--download"
      unicode="&#xE917;"
      horiz-adv-x="1000" d="M833.3333333333333 323.8333333333333C815.0416666666666 323.8333333333333 799.9999999999999 308.7916666666668 799.9999999999999 290.5000000000001L799.9999999999999 198.8333333333334L200 198.8333333333334L200 290.5000000000001C200 308.7916666666668 184.9583333333333 323.8333333333333 166.6666666666667 323.8333333333333C148.375 323.8333333333333 133.3333333333334 308.7916666666668 133.3333333333334 290.5000000000001L133.3333333333334 165.5000000000001C133.3333333333334 147.2083333333335 148.375 132.1666666666668 166.6666666666667 132.1666666666668L833.3333333333333 132.1666666666668C851.625 132.1666666666668 866.6666666666666 147.2083333333335 866.6666666666666 165.5000000000001L866.6666666666666 290.5000000000001C866.6666666666666 308.7916666666668 851.625 323.8333333333333 833.3333333333333 323.8333333333333zM470.4999999999999 302.7916666666667C478.3333333333333 294.9583333333334 488.9166666666666 290.5416666666667 500 290.5416666666667C511.0833333333333 290.5416666666667 521.6666666666666 294.9583333333334 529.5 302.7916666666667L696.1666666666665 469.4583333333334C703.6666666666667 477.2083333333334 707.875 487.625 707.875 498.4166666666667C707.875 521.25 689.0416666666666 540.0833333333334 666.2083333333334 540.0833333333334C655.4166666666666 540.0833333333334 645 535.875 637.25 528.375L541.6666666666666 432.7916666666668L541.6666666666666 832.2083333333334C541.6666666666666 855.0833333333334 522.875 873.875 500 873.875C477.125 873.875 458.3333333333333 855.0833333333334 458.3333333333333 832.2083333333334L458.3333333333333 432.7916666666668L362.7916666666667 528.3333333333334C355.0416666666667 535.8333333333333 344.625 540.0416666666667 333.8333333333333 540.0416666666667C311 540.0416666666667 292.1666666666667 521.2083333333334 292.1666666666667 498.3750000000001C292.1666666666667 487.5833333333334 296.375 477.1666666666667 303.875 469.4166666666667L470.4999999999999 302.7916666666667z" />
    <glyph glyph-name="c-icon--exclamation-circle"
      unicode="&#xE918;"
      horiz-adv-x="1000" d="M958.3333333333331 500A458.3333333333333 458.3333333333333 0 1 1 281.5416666666667 97Q300.9583333333333 86.3750000000001 321.5833333333333 77.6666666666667A459.875 459.875 0 0 1 678.4166666666666 77.6666666666667Q699 86.4166666666667 718.4583333333333 97A457.9583333333333 457.9583333333333 0 0 1 958.3333333333331 500zM541.6666666666666 445.8333333333334A29.1666666666667 29.1666666666667 0 0 0 512.5 416.6666666666668H487.5A29.1666666666667 29.1666666666667 0 0 0 458.3333333333334 445.8333333333334V720.8333333333333A29.1666666666667 29.1666666666667 0 0 0 487.5 750H512.5A29.1666666666667 29.1666666666667 0 0 0 541.6666666666666 720.8333333333333zM545.8333333333333 291.6666666666668A41.6666666666667 41.6666666666667 0 0 0 504.1666666666666 250H495.8333333333333A41.6666666666667 41.6666666666667 0 0 0 454.1666666666666 291.6666666666668V300A41.6666666666667 41.6666666666667 0 0 0 495.8333333333333 341.6666666666667H504.1666666666666A41.6666666666667 41.6666666666667 0 0 0 545.8333333333333 300z" />
    <glyph glyph-name="c-icon--exclamation-circle-o"
      unicode="&#xE919;"
      horiz-adv-x="1000" d="M958.3333333333331 500A458.3333333333333 458.3333333333333 0 1 1 500 41.6666666666667A458.3333333333333 458.3333333333333 0 0 1 958.3333333333331 500zM891.6666666666665 500A391.6666666666667 391.6666666666667 0 1 0 500 891.6666666666666A392.125 392.125 0 0 0 891.6666666666665 500zM487.4999999999999 750H512.4999999999999A29.1666666666667 29.1666666666667 0 0 0 541.6666666666665 720.8333333333333V445.8333333333334A29.1666666666667 29.1666666666667 0 0 0 512.4999999999999 416.6666666666668H487.4999999999999A29.1666666666667 29.1666666666667 0 0 0 458.3333333333333 445.8333333333334V720.8333333333333A29.1666666666667 29.1666666666667 0 0 0 487.4999999999999 750zM495.8333333333333 341.6666666666667H504.1666666666667A41.6666666666667 41.6666666666667 0 0 0 545.8333333333334 300V291.6666666666668A41.6666666666667 41.6666666666667 0 0 0 504.1666666666667 250H495.8333333333334A41.6666666666667 41.6666666666667 0 0 0 454.1666666666667 291.6666666666668V300A41.6666666666667 41.6666666666667 0 0 0 495.8333333333334 341.6666666666667z" />
    <glyph glyph-name="c-icon--exclamation-triangle"
      unicode="&#xE91A;"
      horiz-adv-x="1000" d="M957.5 129.1666666666668L529.1666666666666 920.8333333333334C522.7916666666666 930.8333333333334 511.7083333333333 936.9166666666666 499.8333333333333 936.9166666666666C487.9583333333333 936.9166666666666 476.875 930.8333333333334 470.4999999999999 920.8333333333334L42.5 129.1666666666668C39.875 124.2916666666668 38.4583333333333 118.8333333333334 38.4583333333333 113.2916666666668C38.4583333333333 95.0416666666666 53.4166666666667 80.0416666666667 71.6666666666667 79.9583333333334L928.1666666666666 79.9583333333334C946.4166666666666 80.0416666666667 961.375 95.0416666666666 961.375 113.2916666666668C961.375 118.8333333333334 959.9583333333334 124.2916666666668 957.3333333333331 129.1666666666668L957.5 129.1666666666668zM458.3333333333333 554.1666666666667C458.3333333333333 570.1666666666667 471.5 583.3333333333334 487.4999999999999 583.3333333333334L512.5 583.3333333333334C528.4999999999999 583.3333333333334 541.6666666666666 570.1666666666667 541.6666666666666 554.1666666666667L541.6666666666666 404.1666666666667C541.6666666666666 388.1666666666668 528.4999999999999 375 512.5 375L487.4999999999999 375C471.5 375 458.3333333333333 388.1666666666668 458.3333333333333 404.1666666666667L458.3333333333333 554.1666666666667zM545.8333333333333 250C545.8333333333333 227.1250000000001 527.0416666666666 208.3333333333334 504.1666666666666 208.3333333333334L495.8333333333333 208.3333333333334C472.9583333333333 208.3333333333334 454.1666666666666 227.1250000000001 454.1666666666666 250L454.1666666666666 258.3333333333334C454.1666666666666 281.2083333333334 472.9583333333333 300 495.8333333333333 300L504.1666666666666 300C527.0416666666666 300 545.8333333333333 281.2083333333334 545.8333333333333 258.3333333333334L545.8333333333333 250z" />
    <glyph glyph-name="c-icon--file"
      unicode="&#xE91B;"
      horiz-adv-x="1000" d="M833.0416666666665 716.6666666666667C833.1666666666665 725.5416666666667 829.75 734.125 823.5416666666666 740.5L615.2083333333334 948.8333333333334C608.7499999999999 955.1666666666666 599.9166666666666 958.625 590.8749999999999 958.3333333333334L590.5833333333333 958.3333333333334L250 958.3333333333334C204.3333333333333 958.2083333333334 166.7916666666667 920.6666666666666 166.6666666666667 875L166.6666666666667 125C166.7916666666667 79.3333333333334 204.3333333333333 41.7916666666667 250 41.6666666666667L750 41.6666666666667C795.6666666666666 41.7916666666667 833.2083333333333 79.3333333333334 833.3333333333333 125L833.3333333333333 716.2083333333334L833.0416666666665 716.6666666666667zM719.5 750L625 750L625 844.5833333333334L719.5 750zM750 108.3333333333335L250 108.3333333333335C240.9166666666667 108.4583333333335 233.4583333333333 115.9166666666668 233.3333333333333 125L233.3333333333333 875C233.4583333333333 884.0833333333334 240.9166666666667 891.5416666666666 250 891.6666666666666L558.3333333333334 891.6666666666666L558.3333333333334 716.6666666666667C558.3333333333334 698.375 573.3749999999999 683.3333333333334 591.6666666666666 683.3333333333334L766.6666666666665 683.3333333333334L766.6666666666665 125C766.5416666666665 115.9166666666668 759.0833333333333 108.4583333333335 750 108.3333333333335z" />
    <glyph glyph-name="c-icon--bolt"
      unicode="&#xE91C;"
      horiz-adv-x="1000" d="M777.0416666666666 595.8333333333334C776.8333333333333 598.1666666666667 776.3749999999999 600.5 775.6666666666666 602.75C773.9166666666667 606.625 771.7499999999999 610.25 769.1666666666666 613.625C767.6666666666666 615.1666666666667 766.0416666666667 616.5416666666667 764.2916666666666 617.7916666666667C763.1666666666666 618.9166666666666 761.9166666666666 619.9583333333333 760.6249999999999 620.875C759.9999999999999 621.25 759.3333333333333 621.25 758.7083333333333 621.5833333333333C757.5416666666666 622.0416666666667 756.3333333333334 622.4583333333334 755.125 622.8333333333334C752.4166666666666 623.75 749.625 624.2916666666667 746.7916666666665 624.5C746.125 624.5833333333334 745.4166666666666 625 744.5833333333334 625L559.125 625L559.125 779.5833333333334C559.125 780.7916666666667 559.125 782.0833333333333 559.125 783.3333333333334C559.125 783.7916666666667 558.9166666666666 784.2083333333334 558.9166666666666 784.6666666666667L558.9166666666666 905.5C558.9166666666666 906.625 558.375 907.625 558.2916666666666 908.75C558.125 911.4166666666666 557.6666666666666 914.0833333333334 556.875 916.6666666666666C556.25 918.375 555.4583333333333 920 554.5416666666666 921.5416666666666C553.4583333333333 923.625 552.125 925.625 550.625 927.4166666666666C549.2083333333333 928.9583333333334 547.6666666666666 930.3333333333334 545.9999999999999 931.5833333333334C545 932.625 543.9166666666666 933.5833333333334 542.7916666666666 934.4583333333334C542.0833333333333 934.875 541.3333333333334 934.875 540.625 935.25C538.625 936.125 536.5833333333333 936.8333333333334 534.4583333333333 937.375C532.3333333333333 938.0416666666666 530.125 938.4583333333334 527.875 938.6666666666666C527.1666666666666 938.875 526.4583333333333 939 525.75 939.125C524.3333333333333 938.9583333333334 522.9583333333333 938.6666666666666 521.5833333333334 938.2916666666666C519.375 938.0833333333334 517.2083333333334 937.6666666666666 515.125 937C513.0416666666666 936.25 510.9999999999999 935.2916666666666 509.1249999999999 934.125C507.4166666666667 933.1666666666666 505.7916666666666 932.0833333333334 504.2916666666666 930.875C502.4166666666666 929.2083333333334 500.75 927.3333333333334 499.2916666666667 925.2916666666666C498.4583333333333 924.4583333333334 497.7083333333333 923.5833333333334 496.9583333333333 922.6666666666666L226.125 462.9166666666666C225.75 462.25 225.75 461.5 225.4166666666667 460.8333333333334C224.5 458.8333333333334 223.7916666666667 456.75 223.25 454.5833333333334C222.5833333333333 452.5 222.1666666666667 450.3333333333334 221.9583333333333 448.1250000000001C221.875 446.0833333333334 222 444.0416666666668 222.3333333333334 442C222.5416666666667 439.75 223 437.5416666666667 223.6666666666667 435.375C224.375 433.4166666666667 225.2916666666667 431.5416666666667 226.3333333333334 429.75C227.3333333333334 427.875 228.5416666666667 426.0833333333334 229.9166666666667 424.4583333333334C231.4166666666667 422.7916666666668 233.0833333333334 421.2916666666668 234.875 420C235.8333333333333 419 236.8333333333333 418.0833333333334 237.9166666666667 417.25C238.7916666666667 416.7500000000001 239.75 416.5416666666668 240.625 416.125C241.5 415.7083333333334 242.4166666666667 415.3333333333334 243.375 414.9583333333334C247.0416666666667 413.5416666666668 250.9166666666667 412.7500000000001 254.8333333333333 412.6666666666668L434 412.6666666666668L434 86.3333333333334C434.2083333333333 84.0833333333334 434.6666666666667 81.875 435.375 79.7083333333334C435.5416666666667 78.4583333333334 435.7916666666667 77.25 436.0833333333333 76.0416666666667C438.2916666666667 69 442.9166666666667 63.0000000000001 449.2083333333333 59.1250000000001C450.0833333333333 58.5416666666667 450.6249999999999 57.625 451.5833333333333 57.125C451.875 57.125 452.2499999999999 57.125 452.5416666666667 56.875C457.0833333333333 54.4166666666667 462.1666666666667 53.0833333333334 467.3333333333333 53L468.2916666666667 53C473.1666666666666 53.2083333333335 477.9166666666667 54.4583333333334 482.2499999999999 56.75C483.8333333333333 57.625 485.3749999999999 58.625 486.7916666666666 59.7916666666666C489.5833333333333 61.9166666666667 492.0416666666666 64.4166666666667 494.0833333333333 67.2916666666666C494.875 68.375 496.1666666666666 68.875 496.8333333333333 70.0833333333334L729.9999999999999 495.8333333333334L746.6666666666667 526.4166666666667L746.6666666666667 526.6666666666667L773.5833333333333 575.8333333333334C773.75 576.3333333333334 773.9166666666667 576.8333333333333 774.0416666666667 577.3333333333334C775.6249999999999 581.5 776.7499999999999 585.7916666666667 777.375 590.2083333333333C777.375 590.7916666666667 777.7083333333333 591.25 777.7083333333333 591.8333333333334C777.5833333333333 593.1666666666667 777.375 594.5 777.0416666666666 595.8333333333334z" />
    <glyph glyph-name="c-icon--bolt-o"
      unicode="&#xE91D;"
      horiz-adv-x="1000" d="M777.25 595.8333333333334C777.0416666666666 598.1666666666667 776.5833333333334 600.5 775.8749999999999 602.75C774.125 606.625 771.9583333333334 610.25 769.375 613.625C767.8749999999999 615.1666666666667 766.25 616.5416666666667 764.4999999999999 617.7916666666667C763.375 618.9166666666666 762.125 619.9166666666667 760.8333333333334 620.8333333333334C760.2083333333334 621.2083333333334 759.5416666666666 621.2083333333334 758.9166666666665 621.5416666666667C757.75 622 756.5416666666666 622.4166666666667 755.3333333333333 622.7916666666666C752.6249999999999 623.7083333333333 749.8333333333333 624.25 747 624.4583333333334C746.3333333333333 624.5833333333334 745.8333333333333 625 744.7916666666666 625L559.3333333333333 625L559.3333333333333 779.5833333333334L559.3333333333333 784.6666666666667L559.3333333333333 905.5C559.1666666666666 906.5833333333334 558.9583333333333 907.6666666666666 558.6666666666666 908.75C558.5 911.4583333333334 557.9583333333333 914.125 557.0833333333333 916.6666666666666C556.4583333333334 918.375 555.6666666666666 920 554.75 921.5416666666666C553.5833333333333 923.6666666666666 552.2083333333333 925.625 550.5833333333334 927.4166666666666C549.2083333333333 928.9583333333334 547.6666666666666 930.3333333333334 545.9999999999999 931.5833333333334C545 932.625 543.9166666666666 933.5833333333334 542.7916666666666 934.4583333333334C542.0833333333333 934.875 541.3333333333334 934.875 540.5833333333333 935.25C538.625 936.125 536.5416666666666 936.875 534.4583333333333 937.375C532.3333333333333 938.0416666666666 530.125 938.4583333333334 527.875 938.6666666666666C527.1666666666666 938.875 526.4583333333333 939 525.75 939.125C524.3333333333333 938.9583333333334 522.9583333333333 938.6666666666666 521.5833333333334 938.2916666666666C519.375 938.0833333333334 517.2083333333334 937.6666666666666 515.125 937C513.0416666666666 936.25 510.9999999999999 935.2916666666666 509.1249999999999 934.125C507.4166666666667 933.1666666666666 505.7916666666666 932.0833333333334 504.2916666666666 930.875C502.4166666666666 929.2083333333334 500.75 927.3333333333334 499.2916666666667 925.2916666666666C498.4583333333333 924.4583333333334 497.7083333333333 923.5833333333334 496.9583333333333 922.6666666666666L226.125 462.9166666666666C225.75 462.25 225.75 461.5 225.4166666666667 460.8333333333334C224.5 458.8333333333334 223.7916666666667 456.75 223.25 454.5833333333334C222.5833333333333 452.5 222.1666666666667 450.3333333333334 221.9583333333333 448.1250000000001C221.875 446.0833333333334 222 444.0416666666668 222.3333333333334 442C222.5416666666667 439.75 223 437.5416666666667 223.6666666666667 435.375C224.375 433.4166666666667 225.2916666666667 431.5416666666667 226.3333333333334 429.75C227.3333333333334 427.875 228.5416666666667 426.0833333333334 229.9166666666667 424.4583333333334C231.4166666666667 422.7916666666668 233.0833333333334 421.2916666666668 234.875 420C235.8333333333333 419 236.8333333333333 418.0833333333334 237.9166666666667 417.25C238.7916666666667 416.7500000000001 239.7083333333333 416.5416666666668 240.625 416.125C241.5416666666667 415.7083333333334 242.4166666666667 415.3333333333334 243.375 414.9583333333334C247.0416666666667 413.5416666666668 250.9166666666667 412.7500000000001 254.8333333333333 412.6666666666668L434 412.6666666666668L434 86.3333333333334C434.2083333333333 84.0833333333334 434.6666666666667 81.875 435.375 79.7083333333334C435.8333333333334 75.4583333333334 437.5 71.4583333333334 440.1666666666667 68.1250000000001C440.8333333333333 67.0000000000001 441.5833333333333 65.9166666666667 442.375 64.875C444.375 62.6666666666667 446.6666666666667 60.7083333333334 449.2083333333333 59.1250000000001C450.0833333333333 58.5416666666667 450.6249999999999 57.625 451.5833333333333 57.125C451.875 57.125 452.2499999999999 57.125 452.5416666666667 56.875C457.0833333333333 54.4166666666667 462.1666666666667 53.0833333333334 467.3333333333333 53L468.2916666666667 53C475.0416666666666 53.1666666666667 481.5416666666666 55.5416666666666 486.7916666666666 59.7916666666666C489.5833333333333 61.9166666666667 492.0416666666666 64.4166666666667 494.0833333333333 67.2916666666666C494.875 68.375 496.1666666666666 68.875 496.8333333333333 70.0833333333334L730.2083333333333 495.8333333333334L746.875 526.4166666666667L746.875 526.6666666666667L773.7916666666666 575.8333333333334C773.9583333333333 576.3333333333334 774.125 576.8333333333333 774.25 577.3333333333334C775.8333333333334 581.5 776.9583333333333 585.7916666666667 777.5833333333333 590.2083333333333C777.5833333333333 590.7916666666667 777.9166666666667 591.25 777.9166666666667 591.8333333333334C777.7916666666667 593.1666666666667 777.5833333333333 594.5 777.25 595.8333333333334zM678.6249999999999 540.1666666666667L501.0416666666666 216.6666666666666L501.0416666666666 445.8333333333334C501.0416666666666 464.125 485.9999999999999 479.1666666666667 467.7083333333333 479.1666666666667L313.5416666666667 479.1666666666667L492.7083333333333 783.3333333333334L492.7083333333333 591.6666666666667C492.7083333333333 573.375 507.7499999999999 558.3333333333334 526.0416666666666 558.3333333333334L688.5416666666665 558.3333333333334L678.6249999999999 540.1666666666667z" />
    <glyph glyph-name="c-icon--ellipsis-v"
      unicode="&#xE91E;"
      horiz-adv-x="1000" d="M168.3333333333333 500A83.3333333333333 83.3333333333333 0 0 1 335 500A83.3333333333333 83.3333333333333 0 0 1 168.3333333333333 500M418.3333333333333 500A83.3333333333333 83.3333333333333 0 0 1 584.9999999999999 500A83.3333333333333 83.3333333333333 0 0 1 418.3333333333333 500M668.3333333333333 500A83.3333333333333 83.3333333333333 0 0 1 834.9999999999999 500A83.3333333333333 83.3333333333333 0 0 1 668.3333333333333 500" />
    <glyph glyph-name="c-icon--ellipsis-h"
      unicode="&#xE91F;"
      horiz-adv-x="1000" d="M416.6666666666667 750A83.3333333333333 83.3333333333333 0 0 1 583.3333333333333 750A83.3333333333333 83.3333333333333 0 0 1 416.6666666666667 750M416.6666666666667 500A83.3333333333333 83.3333333333333 0 0 1 583.3333333333333 500A83.3333333333333 83.3333333333333 0 0 1 416.6666666666667 500M416.6666666666667 250A83.3333333333333 83.3333333333333 0 0 1 583.3333333333333 250A83.3333333333333 83.3333333333333 0 0 1 416.6666666666667 250" />
    <glyph glyph-name="c-icon--info-circle"
      unicode="&#xE920;"
      horiz-adv-x="1000" d="M955.9583333333334 546.875A458.3333333333333 458.3333333333333 0 0 1 718.4583333333334 903A442.4583333333333 442.4583333333333 0 0 1 678.4166666666667 922.2916666666669A459.375 459.375 0 0 1 321.5833333333335 922.2916666666669A442.4583333333333 442.4583333333333 0 0 1 281.5416666666668 903A458.3333333333333 458.3333333333333 0 1 1 955.9583333333334 546.875zM541.6666666666666 279.1666666666667A29.1666666666667 29.1666666666667 0 0 0 512.5 250H487.5A29.1666666666667 29.1666666666667 0 0 0 458.3333333333334 279.1666666666667V554.1666666666667A29.1666666666667 29.1666666666667 0 0 0 487.5 583.3333333333334H512.5A29.1666666666667 29.1666666666667 0 0 0 541.6666666666666 554.1666666666667zM545.8333333333333 700A41.6666666666667 41.6666666666667 0 0 0 504.1666666666666 658.3333333333333H495.8333333333333A41.6666666666667 41.6666666666667 0 0 0 454.1666666666666 700V708.3333333333334A41.6666666666667 41.6666666666667 0 0 0 495.8333333333333 750H504.1666666666666A41.6666666666667 41.6666666666667 0 0 0 545.8333333333333 708.3333333333334z" />
    <glyph glyph-name="c-icon--info-circle-o"
      unicode="&#xE921;"
      horiz-adv-x="1000" d="M500 958.3333333333334A458.3333333333333 458.3333333333333 0 1 1 958.3333333333331 500A458.3333333333333 458.3333333333333 0 0 1 500 958.3333333333334zM500 108.3333333333335A391.6666666666667 391.6666666666667 0 1 0 891.6666666666665 500A392.125 392.125 0 0 0 500 108.3333333333335zM487.4999999999999 583.3333333333334H512.4999999999999A29.1666666666667 29.1666666666667 0 0 0 541.6666666666665 554.1666666666667V279.1666666666669A29.1666666666667 29.1666666666667 0 0 0 512.4999999999999 250.0000000000003H487.4999999999999A29.1666666666667 29.1666666666667 0 0 0 458.3333333333333 279.1666666666669V554.1666666666667A29.1666666666667 29.1666666666667 0 0 0 487.4999999999999 583.3333333333335zM495.8333333333333 750H504.1666666666667A41.6666666666667 41.6666666666667 0 0 0 545.8333333333334 708.3333333333334V700A41.6666666666667 41.6666666666667 0 0 0 504.1666666666667 658.3333333333334H495.8333333333334A41.6666666666667 41.6666666666667 0 0 0 454.1666666666667 700V708.3333333333334A41.6666666666667 41.6666666666667 0 0 0 495.8333333333334 750z" />
    <glyph glyph-name="c-icon--list"
      unicode="&#xE922;"
      horiz-adv-x="1000" d="M833.3333333333333 316.6604166666667H375A41.6666666666667 41.6666666666667 0 0 1 375 233.3270833333334H833.3333333333333A41.6666666666667 41.6666666666667 0 0 1 833.3333333333333 316.6604166666667zM833.3333333333333 541.6766666666667H375A41.6666666666667 41.6666666666667 0 0 1 375 458.3433333333334H833.3333333333333A41.6666666666667 41.6666666666667 0 0 1 833.3333333333333 541.6766666666667zM375 683.6445833333333H833.3333333333333A41.6666666666667 41.6666666666667 0 0 1 833.3333333333333 766.9779166666667H375A41.6666666666667 41.6666666666667 0 0 1 375 683.6445833333333zM166.6666666666667 771.15875A45.8333333333333 45.8333333333333 0 1 1 212.5041666666667 725.3333333333334A45.8366666666667 45.8366666666667 0 0 1 166.6666666666667 771.15875zM166.6666666666667 545.8375A45.8333333333333 45.8333333333333 0 1 1 212.5041666666667 500A45.8420833333333 45.8420833333333 0 0 1 166.6666666666667 545.8375zM120.8316666666667 274.9991666666666A45.835 45.835 0 0 1 212.5016666666666 274.9991666666666A45.835 45.835 0 0 1 120.8316666666667 274.9991666666666" />
    <glyph glyph-name="c-icon--location"
      unicode="&#xE923;"
      horiz-adv-x="1000" d="M791.6666666666666 625C791.6666666666666 785 660 916.6666666666666 500 916.6666666666666C340 916.6666666666666 208.3333333333333 785 208.3333333333333 625L208.3333333333333 621.7916666666667C208.3333333333333 619.5833333333333 208.7916666666667 617.25 208.8333333333333 615C209.125 606.2916666666667 209.7083333333334 597.6666666666667 210.75 589.1666666666667C235.3333333333333 363.0416666666667 500 83.3333333333334 500 83.3333333333334C500 83.3333333333334 764.6666666666666 363.0416666666667 789.25 589.1666666666667C790.2916666666665 597.5 790.875 606.2916666666667 791.1666666666666 615C791.1666666666666 617.25 791.6666666666666 619.5833333333333 791.6666666666666 621.7916666666667L791.6666666666666 622.5833333333334C791.6666666666666 623.375 791.6666666666666 624.1666666666667 791.6666666666666 625zM500 520.8333333333334C442.875 520.8333333333334 395.8333333333333 567.875 395.8333333333333 625C395.8333333333333 682.125 442.875 729.1666666666667 500 729.1666666666667C557.125 729.1666666666667 604.1666666666666 682.125 604.1666666666666 625C604.1666666666666 567.875 557.125 520.8333333333334 500 520.8333333333334z" />
    <glyph glyph-name="c-icon--lock"
      unicode="&#xE924;"
      horiz-adv-x="1000" d="M708.3333333333333 583.3333333333334H700V666.6666666666667A200 200 0 0 1 300 666.6666666666667V583.3333333333334H291.6666666666667A83.5833333333333 83.5833333333333 0 0 1 208.3333333333333 500V166.6666666666668A83.5833333333333 83.5833333333333 0 0 1 291.6666666666667 83.3333333333334H708.3333333333333A83.5833333333333 83.5833333333333 0 0 1 791.6666666666666 166.6666666666668V500A83.5833333333333 83.5833333333333 0 0 1 708.3333333333333 583.3333333333334zM366.6666666666667 666.6666666666667A133.3333333333333 133.3333333333333 0 1 0 633.3333333333334 666.6666666666667V583.3333333333334H366.6666666666667zM562.5 312.5A41.6666666666667 41.6666666666667 0 0 0 520.8333333333333 270.8333333333334H479.1666666666666A41.6666666666667 41.6666666666667 0 0 0 437.5 312.5V354.1666666666668A41.6666666666667 41.6666666666667 0 0 0 479.1666666666666 395.8333333333334H520.8333333333333A41.6666666666667 41.6666666666667 0 0 0 562.5 354.1666666666668z" />
    <glyph glyph-name="c-icon--lock-o"
      unicode="&#xE925;"
      horiz-adv-x="1000" d="M708.3333333333333 583.3333333333334H700V666.6666666666667A200 200 0 0 1 300 666.6666666666667V583.3333333333334H291.6666666666667A83.5833333333333 83.5833333333333 0 0 1 208.3333333333333 500V166.6666666666668A83.5833333333333 83.5833333333333 0 0 1 291.6666666666667 83.3333333333334H708.3333333333333A83.5833333333333 83.5833333333333 0 0 1 791.6666666666666 166.6666666666668V500A83.5833333333333 83.5833333333333 0 0 1 708.3333333333333 583.3333333333334zM366.6666666666667 666.6666666666667A133.3333333333333 133.3333333333333 0 1 0 633.3333333333334 666.6666666666667V583.3333333333334H366.6666666666667zM724.9999999999999 166.6666666666668A16.875 16.875 0 0 0 708.3333333333333 150.0000000000001H291.6666666666667A16.875 16.875 0 0 0 275 166.6666666666668V500A16.875 16.875 0 0 0 291.6666666666667 516.6666666666667H708.3333333333333A16.875 16.875 0 0 0 724.9999999999999 500zM479.1666666666666 395.8333333333334H520.8333333333333A41.6666666666667 41.6666666666667 0 0 0 562.5 354.1666666666668V312.5A41.6666666666667 41.6666666666667 0 0 0 520.8333333333333 270.8333333333334H479.1666666666666A41.6666666666667 41.6666666666667 0 0 0 437.5 312.5V354.1666666666668A41.6666666666667 41.6666666666667 0 0 0 479.1666666666666 395.8333333333334z" />
    <glyph glyph-name="c-icon--mail"
      unicode="&#xE926;"
      horiz-adv-x="1000" d="M500 579.1666666666667L916.6666666666666 787.5V791.6666666666667C916.6666666666666 816.6666666666666 900 833.3333333333334 875 833.3333333333334H125C100 833.3333333333334 83.3333333333333 816.6666666666666 83.3333333333333 791.6666666666667V787.5L500 579.1666666666667zM516.6666666666666 512.5C508.3333333333334 508.3333333333334 495.8333333333333 508.3333333333334 487.5 512.5L83.3333333333333 712.5V208.3333333333334C83.3333333333333 183.3333333333334 100 166.6666666666668 125 166.6666666666668H875C900 166.6666666666668 916.6666666666666 183.3333333333334 916.6666666666666 208.3333333333334V712.5L516.6666666666666 512.5z" />
    <glyph glyph-name="c-icon--mail-o"
      unicode="&#xE927;"
      horiz-adv-x="1000" d="M875 833.3333333333334L125 833.3333333333334C102.125 833.3333333333334 83.3333333333333 814.5416666666667 83.3333333333333 791.6666666666667L83.3333333333333 208.3333333333334C83.3333333333333 185.4583333333334 102.125 166.6666666666668 125 166.6666666666668L875 166.6666666666668C897.8749999999999 166.6666666666668 916.6666666666666 185.4583333333334 916.6666666666666 208.3333333333334L916.6666666666666 791.6666666666667C916.6666666666666 814.5416666666667 897.8749999999999 833.3333333333334 875 833.3333333333334zM849.9999999999999 766.6666666666667L849.9999999999999 733.75L500 578.125L150 733.75L150 766.6666666666667L849.9999999999999 766.6666666666667zM150 233.3333333333335L150 660.75L486.4583333333333 511.2083333333334C495.0833333333333 507.4166666666667 504.9166666666666 507.4166666666667 513.5416666666666 511.2083333333334L849.9999999999999 660.75L849.9999999999999 233.3333333333335L150 233.3333333333335z" />
    <glyph glyph-name="c-icon--bars"
      unicode="&#xE928;"
      horiz-adv-x="1000" d="M833.3333333333333 208.3333333333334H166.6666666666667A41.6666666666667 41.6666666666667 0 0 0 166.6666666666667 291.6666666666668H833.3333333333333A41.6666666666667 41.6666666666667 0 0 0 833.3333333333333 208.3333333333334zM833.3333333333333 458.3333333333334H166.6666666666667A41.6666666666667 41.6666666666667 0 0 0 166.6666666666667 541.6666666666667H833.3333333333333A41.6666666666667 41.6666666666667 0 0 0 833.3333333333333 458.3333333333334zM833.3333333333333 708.3333333333334H166.6666666666667A41.6666666666667 41.6666666666667 0 0 0 166.6666666666667 791.6666666666667H833.3333333333333A41.6666666666667 41.6666666666667 0 0 0 833.3333333333333 708.3333333333334z" />
    <glyph glyph-name="c-icon--telegram"
      unicode="&#xE929;"
      horiz-adv-x="1000" d="M916.6666666666666 500A41.2916666666667 41.2916666666667 0 0 1 889.2083333333334 538.7916666666667L888.9583333333334 539.3333333333334L83.3333333333333 875V583.3333333333334L708.3333333333333 500L83.3333333333333 416.6666666666668V125L888.9583333333334 460.75L888.9583333333334 461.2083333333334A41.3333333333333 41.3333333333333 0 0 1 916.6666666666666 500z" />
    <glyph glyph-name="c-icon--user"
      unicode="&#xE92A;"
      horiz-adv-x="1000" d="M624.2499999999999 511.2083333333334C672.0833333333333 549.125 700.0416666666665 606.9166666666667 700.0416666666665 667.9583333333333C700.0416666666665 777.6666666666666 609.75 867.9583333333334 500 867.9583333333334C390.2916666666667 867.9583333333334 300 777.6666666666666 300 667.9583333333333C300 606.9166666666667 327.9583333333333 549.125 375.7916666666667 511.2083333333334C230.875 458.9583333333334 133.625 320.7083333333334 133.3333333333334 166.6666666666668C133.3333333333334 148.375 148.375 133.3333333333334 166.6666666666667 133.3333333333334C184.9583333333333 133.3333333333334 815.0416666666666 133.3333333333334 833.3333333333333 133.3333333333334C851.625 133.3333333333334 866.6666666666666 148.375 866.6666666666666 166.6666666666668C866.4166666666666 320.7083333333334 769.1666666666666 458.9166666666666 624.2499999999999 511.2083333333334z" />
    <glyph glyph-name="c-icon--user-o"
      unicode="&#xE92B;"
      horiz-adv-x="1000" d="M624.2499999999999 511.2083333333334C672.0833333333333 549.125 700.0416666666665 606.9166666666667 700.0416666666665 667.9583333333333C700.0416666666665 777.6666666666666 609.75 867.9583333333334 500 867.9583333333334C390.2916666666667 867.9583333333334 300 777.6666666666666 300 667.9583333333333C300 606.9166666666667 327.9583333333333 549.125 375.7916666666667 511.2083333333334C230.875 458.9583333333334 133.625 320.7083333333334 133.3333333333334 166.6666666666668C133.3333333333334 148.375 148.375 133.3333333333334 166.6666666666667 133.3333333333334C184.9583333333333 133.3333333333334 200 148.375 200 166.6666666666668C200 331.25 335.4166666666667 466.6666666666666 500 466.6666666666666C664.5833333333333 466.6666666666666 799.9999999999999 331.25 799.9999999999999 166.6666666666668C799.9999999999999 148.375 815.0416666666666 133.3333333333334 833.3333333333333 133.3333333333334C851.625 133.3333333333334 866.6666666666666 148.375 866.6666666666666 166.6666666666668C866.4166666666666 320.7083333333334 769.1666666666666 458.9166666666666 624.2499999999999 511.2083333333334zM366.6666666666667 666.6666666666667C366.6666666666667 739.7916666666667 426.875 800 500 800C573.125 800 633.3333333333333 739.7916666666667 633.3333333333333 666.6666666666667C633.3333333333333 593.5416666666667 573.125 533.3333333333334 500 533.3333333333334C426.875 533.3333333333334 366.6666666666667 593.5416666666667 366.6666666666667 666.6666666666667z" />
    <glyph glyph-name="c-icon--user-business"
      unicode="&#xE92C;"
      horiz-adv-x="1000" d="M164.0416666666667 133.5833333333334C146.9166666666667 134.8333333333334 133.3333333333334 149.2916666666666 133.3333333333334 166.6666666666668C133.5833333333333 320.7083333333334 230.8333333333333 458.9166666666666 375.75 511.2083333333334C327.9166666666667 549.125 300 606.9166666666667 300 667.9583333333333C300 777.6666666666666 390.25 867.9583333333334 500 867.9583333333334C609.7083333333333 867.9583333333334 700 777.6666666666666 700 667.9583333333333C700 606.9166666666667 672.0416666666666 549.125 624.2083333333333 511.2083333333334C769.4166666666666 458.5416666666667 866.3749999999999 320.5 866.6666666666666 166.6666666666668C866.6666666666666 148.5833333333334 851.9166666666666 133.6666666666666 833.9583333333333 133.4166666666668L833.9583333333333 133.3750000000001L833.9166666666666 133.3750000000001L833.3333333333333 133.3333333333334L832.75 133.3750000000001L583.0833333333333 133.3333333333334L520.8333333333333 372.5833333333334L547.375 462.5L452.4583333333333 462.5L451.8333333333333 462.375L479.2083333333333 372.5416666666668L416.875 133.2500000000001L164 133.2083333333334L164.0416666666667 133.5833333333334z" />
    <glyph glyph-name="c-icon--user-business-o"
      unicode="&#xE92D;"
      horiz-adv-x="1000" d="M624.2083333333333 511.2083333333334C672.0416666666666 549.125 700 606.9166666666667 700 667.9583333333333C700 777.6666666666666 609.7083333333333 867.9583333333334 500 867.9583333333334C390.25 867.9583333333334 300 777.6666666666666 300 667.9583333333333C300 606.9166666666667 327.9166666666667 549.125 375.75 511.2083333333334C230.8333333333333 458.9166666666666 133.5833333333333 320.7083333333334 133.3333333333334 166.6666666666668C133.3333333333334 148.375 148.375 133.3333333333334 166.6666666666667 133.3333333333334C184.9583333333333 133.3333333333334 200 148.375 200 166.6666666666668C200.2916666666667 313.2083333333334 307.7916666666667 439.1666666666667 452.4583333333333 462.5L451.6666666666666 461.2916666666667L479.2083333333333 372.5416666666668L416.6666666666667 132.4166666666668L583.3333333333333 132.4166666666668L520.8333333333333 372.5833333333334L548.4583333333333 461.375L547.5 462.5C692.1666666666665 439.2083333333334 799.7083333333334 313.2083333333334 799.9999999999999 166.6666666666668C799.9999999999999 148.375 815.0416666666666 133.3333333333334 833.3333333333333 133.3333333333334C851.625 133.3333333333334 866.6666666666666 148.375 866.6666666666666 166.6666666666668C866.3749999999999 320.7083333333334 769.1249999999999 458.9583333333334 624.2083333333333 511.2083333333334zM366.6666666666667 666.6666666666667C366.6666666666667 739.7916666666667 426.875 800 500 800C573.125 800 633.3333333333333 739.7916666666667 633.3333333333333 666.6666666666667C633.3333333333333 593.5416666666667 573.125 533.3333333333334 500 533.3333333333334C426.875 533.3333333333334 366.6666666666667 593.5416666666667 366.6666666666667 666.6666666666667z" />
    <glyph glyph-name="c-icon--users"
      unicode="&#xE92E;"
      horiz-adv-x="1000" d="M537.1093541666667 266.6013541666666C532.2265416666667 363.2810416666668 473.6327916666666 445.3122916666668 395.5077916666666 479.4919791666667C427.7343541666666 503.9060416666667 445.3124791666666 541.0154166666666 445.3124791666666 587.8904166666666C445.3124791666666 662.1091666666666 382.8124791666666 724.6091666666666 307.6171666666667 724.6091666666666C232.4218541666667 724.6091666666666 169.9218541666667 662.1091666666666 169.9218541666667 587.8904166666666C169.9218541666667 545.8982291666666 191.4062291666667 503.9060416666667 219.7265416666667 479.4919791666667C141.6015416666667 445.3122916666668 83.0077916666667 363.2810416666668 78.1249791666667 266.6013541666666L537.1093541666667 266.6013541666666zM912.1093541666665 266.6013541666666C907.2265416666665 363.2810416666668 848.6327916666667 445.3122916666668 770.5077916666667 479.4919791666667C802.7343541666667 503.9060416666667 820.3124791666667 541.0154166666666 820.3124791666667 587.8904166666666C820.3124791666667 662.1091666666666 757.8124791666667 724.6091666666666 682.6171666666667 724.6091666666666C607.4218541666667 724.6091666666666 544.9218541666667 662.1091666666666 544.9218541666667 587.8904166666666C544.9218541666667 545.8982291666666 566.4062291666667 503.9060416666667 594.7265416666667 479.4919791666667C570.3124791666667 470.7029166666667 548.8281041666667 454.1013541666667 532.2265416666667 437.4997916666668C574.2187291666667 391.6013541666668 603.5156041666667 333.0076041666666 616.2109166666667 266.6013541666666L912.1093541666665 266.6013541666666z" />
    <glyph glyph-name="c-icon--users-o"
      unicode="&#xE92F;"
      horiz-adv-x="1000" d="M308.6588541666667 439.4530208333333C405.3385416666667 439.4530208333333 488.3463541666666 360.3514583333333 492.2526041666666 255.8592708333333L538.1510416666666 255.8592708333333C533.2682291666666 352.5389583333333 474.6744791666666 434.5702083333333 396.5494791666667 468.7498958333333C428.7760416666667 493.1639583333333 446.3541666666667 530.2733333333333 446.3541666666667 577.1483333333333C446.3541666666667 651.3670833333333 383.8541666666667 713.8670833333333 308.6588541666667 713.8670833333333C233.4635416666667 713.8670833333333 170.9635416666667 651.3670833333333 170.9635416666667 577.1483333333333C170.9635416666667 535.1561458333333 192.4479166666667 493.1639583333333 220.7682291666667 468.7498958333333C142.6432291666667 434.5702083333333 84.0494791666667 352.5389583333333 79.1666666666667 255.8592708333333L125.0651041666667 255.8592708333333C128.9713541666667 360.3514583333333 211.9791666666667 439.4530208333333 308.6588541666667 439.4530208333333zM216.8619791666667 577.1483333333333C216.8619791666667 626.9530208333333 258.8541666666667 667.9686458333333 308.6588541666667 667.9686458333333C358.4635416666667 667.9686458333333 400.4557291666667 626.9530208333333 400.4557291666667 577.1483333333333C400.4557291666667 526.3670833333333 358.4635416666667 485.3514583333333 308.6588541666667 485.3514583333333C258.8541666666667 485.3514583333333 216.8619791666667 526.3670833333333 216.8619791666667 577.1483333333333zM771.5494791666665 463.8670833333333C803.7760416666665 490.2342708333333 821.3541666666665 526.3670833333333 821.3541666666665 572.2655208333333C821.3541666666665 647.4608333333333 758.8541666666665 709.9608333333333 683.6588541666665 709.9608333333333C608.4635416666666 709.9608333333333 545.9635416666666 647.4608333333333 545.9635416666666 572.2655208333333C545.9635416666666 530.2733333333333 567.4479166666666 490.2342708333333 595.7682291666666 463.8670833333333C571.3541666666666 452.1483333333333 545.9635416666666 434.5702083333333 525.4557291666666 417.9686458333333C529.3619791666666 412.1092708333333 533.2682291666666 406.2498958333333 538.1510416666666 400.3905208333333C542.0572916666666 393.5545833333333 545.9635416666666 387.6952083333333 549.8697916666666 380.8592708333333C584.0494791666666 415.0389583333333 628.9713541666666 439.4530208333333 679.7526041666665 439.4530208333333C774.4791666666665 439.4530208333333 858.4635416666665 360.3514583333333 862.3697916666665 255.8592708333333L913.1510416666666 255.8592708333333C908.2682291666666 346.6795833333333 849.6744791666665 431.6405208333333 771.5494791666665 463.8670833333333zM683.6588541666665 480.4686458333333C633.8541666666666 480.4686458333333 591.8619791666666 522.4608333333333 591.8619791666666 572.2655208333333C591.8619791666666 623.0467708333333 633.8541666666666 664.0623958333333 683.6588541666665 664.0623958333333C733.4635416666665 664.0623958333333 775.4557291666665 623.0467708333333 775.4557291666665 572.2655208333333C775.4557291666665 522.4608333333333 733.4635416666665 480.4686458333333 683.6588541666665 480.4686458333333z" />
    <glyph glyph-name="c-icon--print-o"
      unicode="&#xE930;"
      horiz-adv-x="1000" d="M706.6666666666666 458.3333333333334A41.6666666666667 41.6666666666667 0 0 1 790 458.3333333333334A41.6666666666667 41.6666666666667 0 0 1 706.6666666666666 458.3333333333334M833.3333333333333 625H750V833.3333333333334A41.6666666666667 41.6666666666667 0 0 1 708.3333333333333 875H291.6666666666667A41.6666666666667 41.6666666666667 0 0 1 250 833.3333333333334V625H166.6666666666667A83.5833333333333 83.5833333333333 0 0 1 83.3333333333333 541.6666666666667V333.625H83.3333333333333V250A41.6666666666667 41.6666666666667 0 0 1 125 208.3333333333334H250V125A41.6666666666667 41.6666666666667 0 0 1 291.6666666666667 83.3333333333334H708.3333333333333A41.6666666666667 41.6666666666667 0 0 1 750 125V208.3333333333334H875A41.6666666666667 41.6666666666667 0 0 1 916.6666666666666 250V333.625H916.6666666666666V541.6666666666667A83.5833333333333 83.5833333333333 0 0 1 833.3333333333333 625zM316.6666666666667 708.9166666666667V808.3333333333334H683.3333333333333V625H316.6666666666667zM250 333.3333333333334V275.0000000000001H150V333.625H150V541.6666666666667A16.875 16.875 0 0 0 166.6666666666667 558.3333333333334H833.3333333333333A16.875 16.875 0 0 0 849.9999999999999 541.6666666666667V333.625H849.9999999999999V275.0000000000001H750V333.3333333333334A41.6666666666667 41.6666666666667 0 0 1 708.3333333333333 375H291.6666666666667A41.6666666666667 41.6666666666667 0 0 1 250 333.3333333333334zM683.3333333333333 150.0000000000001H316.6666666666667V308.3333333333333H683.3333333333333z" />
    <glyph glyph-name="c-icon--search"
      unicode="&#xE931;"
      horiz-adv-x="1000" d="M862.7916666666666 196.1250000000001L725.2916666666666 333.6250000000001A336.2916666666667 336.2916666666667 0 1 1 666.25 275.0000000000001L680.875 260.4166666666668H680.875L766.6666666666665 174.5L803.9166666666665 137.2083333333334A41.6666666666667 41.6666666666667 0 0 1 862.8333333333333 196.1250000000001zM191.6666666666666 539.4583333333333A268.875 268.875 0 1 0 460.5416666666667 270.6249999999999A269.2083333333333 269.2083333333333 0 0 0 191.6666666666666 539.4583333333333z" />
    <glyph glyph-name="c-icon--setting"
      unicode="&#xE932;"
      horiz-adv-x="1000" d="M857.6666666666666 571.6666666666667L748.6249999999999 593.4583333333334C746.4583333333333 599.1666666666667 744.1666666666666 604.8333333333334 741.6249999999999 610.375L803.4583333333334 702.0416666666667A21.5833333333333 21.5833333333333 0 0 1 800.8333333333334 729.3333333333335L729.4583333333334 800.875A21.5833333333333 21.5833333333333 0 0 1 702.2500000000001 803.5833333333334L609.75 741.9166666666667C604.2083333333334 744.4166666666667 598.5416666666667 746.7083333333334 592.8333333333334 748.875L571.5833333333334 857.5833333333334A21.5416666666667 21.5416666666667 0 0 1 550.4166666666666 875H449.5A21.5833333333333 21.5833333333333 0 0 1 428.3333333333334 857.6666666666667L406.5416666666667 748.625C401.0416666666667 746.5416666666667 395.5833333333333 744.4583333333334 390.25 741.9166666666667L297.75 803.5833333333333A21.5833333333333 21.5833333333333 0 0 1 270.5416666666666 800.875L199.125 729.4583333333333A21.5833333333333 21.5833333333333 0 0 1 196.4166666666666 702.25L258.0833333333333 609.75C255.6666666666667 604.4166666666666 253.4583333333333 598.9583333333333 251.375 593.4583333333333L142.3333333333333 571.6666666666666A21.5833333333333 21.5833333333333 0 0 1 125 550.5V449.5A21.5833333333333 21.5833333333333 0 0 1 142.3333333333333 428.3333333333334L251.375 406.5416666666668C253.4583333333333 401.0416666666668 255.5416666666667 395.5833333333335 258.0833333333333 390.2500000000001L196.4166666666666 297.7500000000001A21.5833333333333 21.5833333333333 0 0 1 199.125 270.5416666666668L270.5416666666666 199.1250000000002A21.5833333333333 21.5833333333333 0 0 1 297.75 196.4166666666669L390.25 258.0833333333335C395.5833333333333 255.6666666666669 401.0416666666667 253.4583333333335 406.5416666666667 251.3750000000001L428.3333333333333 142.3333333333334A21.5833333333333 21.5833333333333 0 0 1 449.5 125H550.5A21.5833333333333 21.5833333333333 0 0 1 571.6666666666666 142.3333333333334L593.4583333333333 251.3750000000001C599.1666666666666 253.5416666666668 604.8333333333333 255.8333333333334 610.1249999999999 258.3750000000001L701.9999999999999 196.5416666666666A21.5833333333333 21.5833333333333 0 0 1 729.2916666666666 199.1666666666666L800.6666666666666 270.5416666666667A21.5416666666667 21.5416666666667 0 0 1 803.3333333333334 297.7499999999999L741.7083333333334 390.25C744.2083333333334 395.7916666666667 746.5 401.4583333333333 748.625 407.1666666666667L857.375 428.4166666666667A21.5416666666667 21.5416666666667 0 0 1 875 449.5833333333334V550.5A21.5833333333333 21.5833333333333 0 0 1 857.6666666666666 571.6666666666667zM500 375A125 125 0 1 0 625 500A125 125 0 0 0 500 375z" />
    <glyph glyph-name="c-icon--share"
      unicode="&#xE933;"
      horiz-adv-x="1000" d="M750 375A124.25 124.25 0 0 1 657.5833333333333 333.3333333333334L372.5833333333333 475.8333333333334A120.375 120.375 0 0 1 372.5833333333333 523.8333333333333L657.5833333333333 666.6666666666667A124.5 124.5 0 1 1 625 750A126.3333333333333 126.3333333333333 0 0 1 627.4166666666666 726L342.4166666666667 583.3333333333334A125 125 0 1 1 342.4166666666667 416.3333333333334L627.4166666666666 273.8333333333335A126.3333333333333 126.3333333333333 0 0 1 625 250A125 125 0 1 1 750 375z" />
    <glyph glyph-name="c-icon--facebook"
      unicode="&#xE934;"
      horiz-adv-x="1000" d="M833.3333333333333 125H637.5V416.6666666666668H733.3333333333334L750 529.1666666666667H637.5V600C637.5 633.3333333333334 645.8333333333333 654.1666666666667 691.6666666666667 654.1666666666667H750V758.3333333333334C741.6666666666666 758.3333333333334 704.1666666666665 762.5 662.5 762.5A136.8554166666667 136.8554166666667 0 0 1 516.6666666666666 612.5V529.1666666666667H420.8333333333333V416.6666666666668H516.6666666666666V125H166.6666666666667A41.75375 41.75375 0 0 0 125 166.6666666666668V833.3333333333334A41.75375 41.75375 0 0 0 166.6666666666667 875H833.3333333333333A41.75375 41.75375 0 0 0 875 833.3333333333334V166.6666666666668A39.3654166666667 39.3654166666667 0 0 0 833.3333333333333 125z" />
    <glyph glyph-name="c-icon--google-plus"
      unicode="&#xE935;"
      horiz-adv-x="1000" d="M347.8583333333333 548.1904166666667V449.4229166666667H493.7499999999999A137.2008333333333 137.2008333333333 0 0 0 348.11375 337.6837500000001A162.0775 162.0775 0 0 0 348.11375 661.7854166666666A145.5470833333333 145.5470833333333 0 0 0 450.0591666666667 622.5975000000001L525.2570833333333 695.6808333333333A253.4708333333333 253.4708333333333 0 0 1 348.115 764.78875A264.78875 264.78875 0 0 1 348.115 235.2112500000001A244.2966666666667 244.2966666666667 0 0 1 602.3233333333334 493.9079166666667A230.6054166666667 230.6054166666667 0 0 1 595.6983333333334 548.1904166666667zM840.5708333333333 537.3333333333334V613.4308333333333H765.375L765.2466666666666 598.315V537.3333333333334H689.1491666666667V462.0145833333333H765.2445833333334V385.9150000000001H840.5708333333333V462.0129166666667H916.6666666666666V537.3333333333334z" />
    <glyph glyph-name="c-icon--twitter"
      unicode="&#xE936;"
      horiz-adv-x="1000" d="M564.3888833583334 552.9607466333333L816.3466340833336 845.84125L756.6407119166666 845.84125L537.865827475 591.5372246083334L363.1309697333333 845.84125L161.595 845.84125L425.8283921000001 461.2885241583333L161.595 154.15835025L221.3043062166667 154.15835025L452.3362197583334 422.7120461833333L636.8690302666666 154.15835025L838.4050000000002 154.15835025L564.3742191416667 552.9607466333333L564.3888833583334 552.9607466333333zM482.6088030416667 457.9005261L455.836455475 496.1933078833334L242.8184040916667 800.8931698833334L334.5284151250001 800.8931698833334L506.4364631000001 554.990612625L533.2088106666667 516.6978308416667L756.6689123333333 197.0624641666666L664.9589013000001 197.0624641666666L482.6088030416667 457.8858618833333L482.6088030416667 457.9005261z" />
    <glyph glyph-name="c-icon--instagram"
      unicode="&#xE937;"
      horiz-adv-x="1000" d="M872.7416666666666 654.6120833333333A275.3470833333333 275.3470833333333 0 0 1 855.31625 745.64125A191.75 191.75 0 0 1 745.6358333333333 855.31375A275.2191666666667 275.2191666666667 0 0 1 654.6120833333333 872.7441666666666C614.61375 874.5704166666667 601.8475 875 500 875S385.38625 874.5704166666667 345.3879166666667 872.7441666666667A275.2191666666667 275.2191666666667 0 0 1 254.3641666666667 855.31375A191.75 191.75 0 0 1 144.68375 745.64125A275.3470833333333 275.3470833333333 0 0 1 127.2583333333333 654.6120833333333C125.4270833333333 614.61375 125 601.8445833333333 125 500S125.4270833333333 385.38625 127.2583333333333 345.3879166666667A275.3116666666666 275.3116666666666 0 0 1 144.68375 254.3616666666668A191.7441666666667 191.7441666666667 0 0 1 254.3641666666667 144.6862500000001A275.2833333333333 275.2833333333333 0 0 1 345.3879166666667 127.2558333333334C385.38625 125.4325000000001 398.1525 125 500 125S614.61375 125.4325000000001 654.6120833333333 127.2558333333334A275.2833333333333 275.2833333333333 0 0 1 745.6358333333333 144.6862500000001A191.7441666666667 191.7441666666667 0 0 1 855.31625 254.3616666666668A275.3116666666666 275.3116666666666 0 0 1 872.7416666666666 345.3879166666668C874.5749999999999 385.3879166666668 875 398.1579166666668 875 500.0000000000001S874.5729166666666 614.61375 872.7416666666666 654.6120833333333zM805.2470833333333 348.4675A207.7379166666667 207.7379166666667 0 0 0 792.3379166666666 278.8366666666666A124.1970833333333 124.1970833333333 0 0 0 721.1608333333334 207.6666666666668A207.4425 207.4425 0 0 0 651.5300000000001 194.7525000000001C611.9995833333334 192.9495833333334 600.1383333333334 192.5679166666668 500.0000000000001 192.5679166666668S388 192.9495833333334 348.4700000000001 194.7525000000001A207.4425 207.4425 0 0 0 278.8391666666667 207.6666666666668A124.1970833333333 124.1970833333333 0 0 0 207.6620833333334 278.8362500000001A207.7379166666667 207.7379166666667 0 0 0 194.7529166666667 348.4670833333334C192.9525 388.0087500000001 192.5658333333334 399.8712500000001 192.5658333333334 499.9995833333334S192.9525000000001 611.98875 194.7529166666667 651.5320833333334A207.7420833333333 207.7420833333333 0 0 0 207.6620833333333 721.1666666666667A124.2158333333333 124.2158333333333 0 0 0 278.8391666666667 792.3333333333334A207.525 207.525 0 0 0 348.47 805.245C388.0108333333333 807.05 399.8716666666667 807.4341666666667 500 807.4341666666667S611.9891666666666 807.05 651.53 805.2470833333334A207.525 207.525 0 0 0 721.1608333333334 792.3354166666667A124.2158333333333 124.2158333333333 0 0 0 792.3379166666666 721.1666666666667A207.7420833333333 207.7420833333333 0 0 0 805.2470833333333 651.5333333333333C807.0474999999999 611.9916666666667 807.4341666666666 600.1316666666667 807.4341666666666 500.0008333333333S807.0475 388.0108333333334 805.2470833333333 348.4675000000001zM500 692.5683333333334A192.5670833333333 192.5670833333333 0 1 1 692.5658333333333 500A192.5645833333333 192.5645833333333 0 0 1 500 692.5683333333334zM500 375A125 125 0 1 0 625 500A125.0029166666667 125.0029166666667 0 0 0 500 375zM745.1783333333333 700.1775A45.0033333333333 45.0033333333333 0 1 0 700.1750000000001 745.1775A45.00375 45.00375 0 0 0 745.1783333333333 700.1775z" />
    <glyph glyph-name="c-icon--facebook-circle"
      unicode="&#xE938;"
      horiz-adv-x="1000" d="M500 958.3333333333334A458.3333333333333 458.3333333333333 0 1 1 958.3333333333331 500A459.6808333333333 459.6808333333333 0 0 1 500 958.3333333333334zM611.25 500H533.3333333333334V215.8333333333334H414.1666666666667V500H359.1666666666667V600.8333333333334H414.1666666666667V665A111.5 111.5 0 0 0 533.3333333333334 784.1666666666667H620.4166666666666V687.9166666666667H556.25C547.0833333333333 687.9166666666667 533.3333333333333 683.3333333333333 533.3333333333333 660.4166666666667V600.8333333333334H625z" />
    <glyph glyph-name="c-icon--google-circle"
      unicode="&#xE939;"
      horiz-adv-x="1000" d="M500 958.3333333333334A458.3333333333333 458.3333333333333 0 1 1 958.3333333333331 500A458.3333333333333 458.3333333333333 0 0 1 500 958.3333333333334zM390.0858333333333 290.7029166666668A189.0208333333333 189.0208333333333 0 0 0 390.0858333333333 668.7445833333334A180.9404166666667 180.9404166666667 0 0 0 516.5404166666666 619.4112500000001L462.86 567.2416666666668A103.8995833333333 103.8995833333333 0 0 1 390.0858333333333 595.2162500000002A115.7 115.7 0 0 1 390.0858333333333 363.8545833333336A97.9416666666667 97.9416666666667 0 0 1 494.0491666666666 443.6200000000003H389.9029166666667V514.125H566.8233333333334A164.6104166666667 164.6104166666667 0 0 0 571.55375 475.3750000000001A174.3925 174.3925 0 0 0 390.0858333333333 290.7029166666668zM795.9491666666665 452.6062500000002H741.6279166666667V398.2825000000002H687.8558333333333V452.60625H633.5345833333332V506.3729166666667H687.8558333333333V549.90625L687.9474999999999 560.6979166666667H741.6279166666665V506.3737500000001H795.9491666666664z" />
    <glyph glyph-name="c-icon--twitter-circle"
      unicode="&#xE93A;"
      horiz-adv-x="1000" d="M500 958.3333333333334C752.9583333333335 958.3333333333334 958.3333333333334 752.9583333333333 958.3333333333334 500C958.3333333333334 247.0416666666665 752.9583333333335 41.6666666666665 500 41.6666666666665C247.0416666666667 41.6666666666665 41.6666666666667 247.0416666666665 41.6666666666667 500C41.6666666666667 752.9583333333333 247.0416666666667 958.3333333333334 500 958.3333333333334zM543.5000000000001 535.7916666666666L713.7083333333334 733.625L673.375 733.625L525.5833333333334 561.8333333333333L407.5416666666667 733.625L271.4166666666667 733.625L449.8750000000001 473.8333333333333L271.4166666666667 266.375L311.7500000000001 266.375L467.7916666666667 447.7916666666667L592.4583333333334 266.375L728.5833333333334 266.375L543.5000000000001 535.7916666666666zM488.25 471.5416666666666L326.25 703.25L388.2083333333334 703.25L673.375 295.375L611.4166666666666 295.375L488.25 471.5416666666666z" />
    <glyph glyph-name="c-icon--instagram-circle"
      unicode="&#xE93B;"
      horiz-adv-x="1000" d="M416.6666666666667 500A83.3333333333333 83.3333333333333 0 0 1 583.3333333333333 500A83.3333333333333 83.3333333333333 0 0 1 416.6666666666667 500M694.8854166666666 647.4433333333334A82.77 82.77 0 0 1 647.4404166666666 694.8904166666666A138.3616666666666 138.3616666666666 0 0 1 601.02375 703.49875C574.6566666666666 704.7016666666666 566.7524999999999 704.9570833333332 500.0004166666666 704.9570833333332S425.3441666666667 704.7025 398.9770833333334 703.49875A138.3616666666666 138.3616666666666 0 0 1 352.5604166666667 694.8904166666666A82.77 82.77 0 0 1 305.1145833333333 647.4433333333334A138.3375 138.3375 0 0 1 296.5 601.0208333333334C295.2995833333333 574.66125 295.045 566.7545833333334 295.045 500S295.2995833333333 425.3412500000001 296.5 398.9791666666668A138.3525 138.3525 0 0 1 305.1158333333333 352.5566666666666A82.7566666666667 82.7566666666667 0 0 1 352.5608333333333 305.1120833333333A138.2316666666667 138.2316666666667 0 0 1 398.9775 296.5037499999999C425.3345833333333 295.3008333333331 433.2487499999999 295.0454166666666 500.0008333333333 295.0454166666666S574.6674999999999 295.2995833333332 601.0241666666666 296.5037499999999A138.2316666666667 138.2316666666667 0 0 1 647.4408333333333 305.1120833333333A82.7566666666667 82.7566666666667 0 0 1 694.8858333333333 352.5566666666666A138.3525 138.3525 0 0 1 703.5 398.9791666666668C704.7004166666667 425.3412500000001 704.9549999999999 433.2479166666667 704.9549999999999 500S704.7004166666667 574.66125 703.5 601.0233333333333A138.3333333333333 138.3333333333333 0 0 1 694.8854166666666 647.4433333333334zM500 371.6229166666667A128.37875 128.37875 0 1 0 628.3770833333333 500A128.375 128.375 0 0 0 500 371.6229166666667zM633.4533333333333 603.4520833333333A30 30 0 1 0 663.4533333333334 633.4520833333333A29.9966666666667 29.9966666666667 0 0 0 633.4533333333333 603.4520833333333zM500 958.3333333333334A458.3333333333333 458.3333333333333 0 1 1 958.3333333333331 500A458.3333333333333 458.3333333333333 0 0 1 500 958.3333333333334zM748.4945833333333 396.9270833333334A183.5679166666667 183.5679166666667 0 0 0 736.8774999999999 336.24A127.8658333333333 127.8658333333333 0 0 0 663.7574999999999 263.1250000000001A183.4895833333333 183.4895833333333 0 0 0 603.0783333333333 251.5054166666668C576.4058333333334 250.2875000000002 567.89125 250 500 250S423.5941666666667 250.2875000000002 396.9216666666667 251.5054166666668A183.4895833333333 183.4895833333333 0 0 0 336.2425 263.1250000000001A127.8658333333333 127.8658333333333 0 0 0 263.1225 336.2400000000001A183.5679166666667 183.5679166666667 0 0 0 251.5054166666667 396.9270833333335C250.285 423.5916666666667 250 432.1033333333334 250 500S250.285 576.4108333333334 251.5054166666667 603.0758333333333A183.5641666666667 183.5641666666667 0 0 0 263.1225 663.76A127.8466666666667 127.8466666666667 0 0 0 336.2425 736.875A183.4825 183.4825 0 0 0 396.9216666666667 748.4970833333333C423.5941666666667 749.7125 432.10875 750 500 750S576.4058333333334 749.7125 603.0783333333333 748.4970833333334A183.4825 183.4825 0 0 0 663.7574999999999 736.875A127.8466666666667 127.8466666666667 0 0 0 736.8774999999999 663.76A183.5641666666667 183.5641666666667 0 0 0 748.4945833333333 603.0758333333334C749.7149999999999 576.4091666666668 750 567.8966666666668 750 500.0000000000001S749.7149999999999 423.5916666666667 748.4945833333333 396.9270833333334z" />
    <glyph glyph-name="c-icon--mail-circle"
      unicode="&#xE93C;"
      horiz-adv-x="1000" d="M304.1666666666667 643.2083333333333C304.4583333333333 643.2083333333333 304.8333333333333 643.2083333333333 305.125 642.875L500 531.2083333333334L694.8333333333333 642.875C695.1666666666666 642.875 695.5 642.875 695.8333333333333 643.2083333333333L695.8333333333333 654.1666666666666L304.1666666666667 654.1666666666666L304.1666666666667 643.2083333333333zM500 472.875C495.2499999999999 472.875 490.5833333333333 474.125 486.5 476.5L304.1666666666667 581.0416666666667L304.1666666666667 345.8333333333334L695.8333333333333 345.8333333333334L695.8333333333333 581.0416666666667L513.4583333333334 476.5C509.3749999999999 474.125 504.7083333333333 472.875 500 472.875zM500 958.3333333333334C248.5833333333333 958.3333333333334 41.6666666666667 751.4166666666667 41.6666666666667 500C41.6666666666667 248.5833333333334 248.5833333333333 41.6666666666667 500 41.6666666666667C751.4166666666666 41.6666666666667 958.3333333333331 248.5833333333334 958.3333333333331 500C958.3333333333331 751.4166666666667 751.4166666666666 958.3333333333334 500 958.3333333333334zM750 333.3333333333334C750 310.4583333333334 731.2083333333333 291.6666666666668 708.3333333333333 291.6666666666668L291.6666666666667 291.6666666666668C268.7916666666667 291.6666666666668 250 310.4583333333334 250 333.3333333333334L250 666.6666666666667C250 689.5416666666667 268.7916666666667 708.3333333333334 291.6666666666667 708.3333333333334L708.3333333333333 708.3333333333334C731.2083333333333 708.3333333333334 750 689.5416666666667 750 666.6666666666667L750 333.3333333333334z" />
    <glyph glyph-name="c-icon--youtube-circle"
      unicode="&#xE93D;"
      horiz-adv-x="1000" d="M454.1666666666666 429.1666666666668L575 500L454.1666666666666 570.8333333333333L454.1666666666666 429.1666666666668zM500 958.3333333333334A458.3333333333333 458.3333333333333 0 1 1 958.3333333333331 500A457.0133333333333 457.0133333333333 0 0 1 500 958.3333333333334zM724.9999999999999 383.3333333333334A53.5241666666667 53.5241666666667 0 0 0 683.3333333333333 341.6666666666667A1656.159583333333 1656.159583333333 0 0 0 500 333.3333333333334A1656.159583333333 1656.159583333333 0 0 0 316.6666666666667 341.6666666666667A59.9166666666667 59.9166666666667 0 0 0 275 383.3333333333334A820.8333333333331 820.8333333333331 0 0 0 275 616.6666666666666A59.9166666666667 59.9166666666667 0 0 0 316.6666666666667 658.3333333333333C354.1666666666667 662.5 500 666.6666666666667 500 666.6666666666667A1656.159583333333 1656.159583333333 0 0 0 683.3333333333333 658.3333333333334A59.9166666666667 59.9166666666667 0 0 0 724.9999999999999 616.6666666666667A512.7595833333332 512.7595833333332 0 0 0 737.4999999999999 500A1106.4554166666665 1106.4554166666665 0 0 0 724.9999999999999 383.3333333333334z" />
    <glyph glyph-name="c-icon--star"
      unicode="&#xE93E;"
      horiz-adv-x="1000" d="M926 598.8333333333334C921.875 611.5416666666667 910.4583333333331 620.625 897.1249999999999 621.75L633.625 644.375L530.7083333333333 888C524.7083333333333 899.375 512.8333333333333 906.5 500 906.5C487.1666666666666 906.5 475.2916666666666 899.375 469.2916666666666 888L366.375 644.375L102.875 621.75C85.75 620.25 72.5 605.7083333333334 72.5 588.5416666666667C72.5 578.9166666666667 76.6666666666667 569.75 83.9166666666667 563.4166666666667L283.9166666666667 390.2083333333334L223.8333333333333 132.5833333333334C220.7916666666667 119.5416666666668 225.9166666666667 105.8750000000001 236.75 98.0416666666667C247.5 90.1250000000001 262.0833333333333 89.5 273.5 96.4583333333335L500 233.0416666666668L726.5 96.4583333333335C737.9166666666666 89.5833333333334 752.4583333333334 90.2083333333334 763.25 98.0416666666667C774.0833333333333 105.8750000000001 779.2083333333333 119.5416666666668 776.1666666666666 132.5833333333334L716.25 390.125L916.2499999999998 563.3333333333333C926.3333333333331 572.125 930.1666666666666 586.125 926 598.8333333333334z" />
    <glyph glyph-name="c-icon--star-half-full"
      unicode="&#xE93F;"
      horiz-adv-x="1000" d="M926 598.8333333333334C921.875 611.5416666666667 910.4583333333331 620.625 897.1249999999999 621.75L633.625 644.375L530.7083333333333 888C524.7083333333333 899.375 512.8333333333333 906.5 500 906.5C487.1666666666666 906.5 475.2916666666666 899.375 469.2916666666666 888L366.375 644.375L102.875 621.75C85.75 620.25 72.5 605.7083333333334 72.5 588.5416666666667C72.5 578.9166666666667 76.6666666666667 569.75 83.9166666666667 563.4166666666667L283.9166666666667 390.2083333333334L223.8333333333333 132.5833333333334C220.7916666666667 119.5416666666668 225.9166666666667 105.8750000000001 236.75 98.0416666666667C247.5 90.1250000000001 262.0833333333333 89.5 273.5 96.4583333333335L500 233.0416666666668L726.5 96.4583333333335C737.9166666666666 89.5833333333334 752.4583333333334 90.2083333333334 763.25 98.0416666666667C774.0833333333333 105.8750000000001 779.2083333333333 119.5416666666668 776.1666666666666 132.5833333333334L716.25 390.125L916.2499999999998 563.3333333333333C926.3333333333331 572.125 930.1666666666666 586.125 926 598.8333333333334zM657.4166666666666 427.375C648.0833333333333 419.2916666666668 643.9583333333333 406.6666666666668 646.75 394.625L693.3749999999999 194.2916666666668L517.2083333333334 300.5C512 303.625 506.0833333333333 305.2916666666668 500 305.2916666666668L500 789.3333333333334L580.0416666666666 600C584.875 588.625 595.625 580.8333333333333 607.9166666666666 579.7916666666666L812.875 562.2083333333334L657.4166666666666 427.375z" />
    <glyph glyph-name="c-icon--star-o"
      unicode="&#xE940;"
      horiz-adv-x="1000" d="M743.7083333333333 91.6666666666667A33.0416666666667 33.0416666666667 0 0 0 726.5 96.4583333333333L500 233.0416666666668L273.5 96.4583333333335A33 33 0 0 0 236.75 98.0416666666667A33.3333333333333 33.3333333333333 0 0 0 223.8333333333334 132.5833333333335L283.75 390.125L83.75 563.375A33.3333333333333 33.3333333333333 0 0 0 102.7083333333333 621.7083333333335L366.2083333333333 644.3333333333334L469.125 887.9583333333334A34.75 34.75 0 0 0 530.5416666666666 887.9583333333334L633.4583333333334 644.3333333333334L896.9583333333334 621.7083333333335A33.3333333333333 33.3333333333333 0 0 0 915.9166666666666 563.375L715.9166666666665 390.125L775.8333333333331 132.5833333333334A33.3333333333333 33.3333333333333 0 0 0 762.9166666666665 98.0416666666666A33 33 0 0 0 743.7083333333333 91.6666666666667zM500 305.2916666666668A33.3333333333333 33.3333333333333 0 0 0 517.2083333333334 300.5000000000003L693.3749999999999 194.2916666666669L646.7499999999999 394.6250000000003A33.3333333333333 33.3333333333333 0 0 0 657.4166666666666 427.3750000000001L812.875 562.0833333333335L607.9166666666666 579.6666666666669A33.3333333333333 33.3333333333333 0 0 0 580.0416666666666 599.8750000000002L500 789.3333333333334L419.9583333333333 600A33.3333333333333 33.3333333333333 0 0 0 392.0833333333333 579.7916666666667L187.125 562.2083333333334L342.5833333333334 427.5A33.3333333333333 33.3333333333333 0 0 0 353.2500000000001 394.75L306.625 194.2916666666668L482.7916666666666 300.5A33.3333333333333 33.3333333333333 0 0 0 500 305.2916666666668z" />
    <glyph glyph-name="c-icon--file-text"
      unicode="&#xE941;"
      horiz-adv-x="1000" d="M666.6666666666666 491.6666666666667H333.3333333333333A33.3333333333333 33.3333333333333 0 1 1 333.3333333333333 425.0000000000001H666.6666666666666A33.3333333333333 33.3333333333333 0 0 1 666.6666666666666 491.6666666666667zM666.6666666666666 366.6666666666668H333.3333333333333A33.3333333333333 33.3333333333333 0 1 1 333.3333333333333 300H666.6666666666666A33.3333333333333 33.3333333333333 0 0 1 666.6666666666666 366.6666666666667zM500 241.6666666666668H333.3333333333333A33.3333333333333 33.3333333333333 0 1 1 333.3333333333333 175H500A33.3333333333333 33.3333333333333 0 0 1 500 241.6666666666668zM833.0416666666665 716.6666666666667A33.3333333333333 33.3333333333333 0 0 1 823.5416666666665 740.5L615.2083333333331 948.8333333333334A33.3333333333333 33.3333333333333 0 0 1 590.8749999999999 958.3333333333334L590.5833333333333 958.3333333333334H250A83.5833333333333 83.5833333333333 0 0 1 166.6666666666667 875V125A83.5833333333333 83.5833333333333 0 0 1 250 41.6666666666667H750A83.5833333333333 83.5833333333333 0 0 1 833.3333333333333 125V716.2083333333334zM719.5 750H625V844.5833333333334zM750 108.3333333333335H250A16.875 16.875 0 0 0 233.3333333333333 125V875A16.875 16.875 0 0 0 250 891.6666666666666H558.3333333333334V716.6666666666667A33.3333333333333 33.3333333333333 0 0 1 591.6666666666666 683.3333333333334H766.6666666666667V125A16.875 16.875 0 0 0 750 108.3333333333335z" />
    <glyph glyph-name="c-icon--microphone"
      unicode="&#xE942;"
      horiz-adv-x="1000" d="M750 533.3333333333334A33.3333333333333 33.3333333333333 0 0 1 716.6666666666666 500A216.6666666666667 216.6666666666667 0 1 0 283.3333333333333 500A33.3333333333333 33.3333333333333 0 1 1 216.6666666666666 500A282.9583333333333 282.9583333333333 0 0 1 466.6666666666666 218.8333333333334V116.6666666666668H375A33.3333333333333 33.3333333333333 0 0 1 375 50H625A33.3333333333333 33.3333333333333 0 0 1 625 116.6666666666668H533.3333333333334V218.7083333333334A283.3333333333333 283.3333333333333 0 0 1 783.3333333333334 500A33.3333333333333 33.3333333333333 0 0 1 750 533.3333333333334zM500 333.3333333333334A167.1666666666666 167.1666666666666 0 0 1 666.6666666666666 500V791.6666666666667A166.6666666666667 166.6666666666667 0 0 1 333.3333333333333 791.6666666666667V500A167.1666666666666 167.1666666666666 0 0 1 500 333.3333333333334zM400 791.6666666666667A100 100 0 0 0 599.9999999999999 791.6666666666667V500A100 100 0 0 0 399.9999999999999 500z" />
    <glyph glyph-name="c-icon--clock"
      unicode="&#xE943;"
      horiz-adv-x="1000" d="M955.9583333333334 546.875A458.3333333333333 458.3333333333333 0 0 1 718.4583333333334 903A442.4583333333333 442.4583333333333 0 0 1 678.4166666666667 922.2916666666669A459.375 459.375 0 0 1 321.5833333333335 922.2916666666669A442.4583333333333 442.4583333333333 0 0 1 281.5416666666668 903A458.3333333333333 458.3333333333333 0 1 1 955.9583333333334 546.875zM697.9999999999999 387.5000000000001A33.3333333333333 33.3333333333333 0 0 0 666.6666666666665 365.5833333333334A34.1666666666667 34.1666666666667 0 0 0 655.2499999999999 367.5833333333334L469.125 435.5000000000001A33.3333333333333 33.3333333333333 0 0 0 447.2083333333333 466.8333333333335V749.2083333333334A33.3333333333333 33.3333333333333 0 0 0 513.875 749.2083333333334V490.0833333333334L678.0833333333334 430.1666666666668A33.3333333333333 33.3333333333333 0 0 0 697.9999999999999 387.5000000000001z" />
    <glyph glyph-name="c-icon--clock-o"
      unicode="&#xE944;"
      horiz-adv-x="1000" d="M650 440.3750000000001L513.7916666666666 490.0833333333334V712.5A33.3333333333333 33.3333333333333 0 0 1 447.125 712.5V466.6666666666666A33.3333333333333 33.3333333333333 0 0 1 469.0416666666666 435.3333333333333L627.125 377.625A34.2916666666667 34.2916666666667 0 0 1 638.5416666666666 375.6666666666667A33.3333333333333 33.3333333333333 0 0 1 650 440.2916666666667zM500 958.3333333333334A458.3333333333333 458.3333333333333 0 1 1 958.3333333333331 500A458.3333333333333 458.3333333333333 0 0 1 500 958.3333333333334zM500 108.3333333333335A391.6666666666667 391.6666666666667 0 1 0 891.6666666666665 500A392.125 392.125 0 0 0 500 108.3333333333335z" />
    <glyph glyph-name="c-icon--product-a-z"
      unicode="&#xE945;"
      horiz-adv-x="1000" d="M205.375 708.3333333333334L211.2916666666667 708.3333333333334L296.5416666666667 500L120.0833333333334 500L205.375 708.3333333333334zM12.9166666666667 293.2083333333334C23.5416666666667 288.9166666666667 35.75 293.9583333333334 40.125 304.625L103.125 458.5416666666666C103.5 458.5416666666666 103.7916666666667 458.3333333333333 104.1666666666667 458.3333333333333L312.5 458.3333333333333C312.875 458.3333333333333 313.1666666666667 458.5416666666666 313.5416666666667 458.5416666666666L376.5416666666667 304.625C379.8333333333334 296.5416666666668 387.625 291.6666666666668 395.8333333333333 291.6666666666668C398.4583333333333 291.6666666666668 401.125 292.1666666666668 403.7083333333333 293.2083333333334C414.375 297.5833333333334 419.4583333333333 309.7499999999999 415.125 320.375L244.5416666666667 737.0416666666667C241.3333333333334 744.875 233.7083333333334 750 225.25 750L191.4166666666667 750C182.9166666666667 750 175.3333333333334 744.875 172.125 737.0416666666667L1.5416666666667 320.375C-2.8333333333333 309.7500000000001 2.2916666666667 297.5833333333334 12.9166666666667 293.2083333333334M604.1666666666666 458.3333333333334C615.6666666666666 458.3333333333334 625 467.6666666666667 625 479.1666666666667C625 490.6666666666667 615.6666666666666 500 604.1666666666666 500L479.1666666666666 500C467.6666666666666 500 458.3333333333333 490.6666666666667 458.3333333333333 479.1666666666667C458.3333333333333 467.6666666666667 467.6666666666666 458.3333333333334 479.1666666666666 458.3333333333334L604.1666666666666 458.3333333333334zM979.1666666666666 333.3333333333334L727.5 333.3333333333334L996.25 717.2083333333333C1000.7083333333331 723.5833333333333 1001.25 731.875 997.625 738.75C994.0416666666669 745.6666666666667 986.9583333333334 750 979.1666666666666 750L687.5 750C676 750 666.6666666666666 740.6666666666667 666.6666666666666 729.1666666666667C666.6666666666666 717.6666666666667 676 708.3333333333334 687.5 708.3333333333334L939.1666666666666 708.3333333333334L670.4166666666666 324.4583333333334C665.9583333333334 318.0833333333334 665.4166666666666 309.7916666666667 669.0416666666665 302.9166666666668C672.6249999999999 296 679.7083333333333 291.6666666666668 687.5 291.6666666666668L979.1666666666666 291.6666666666668C990.6666666666666 291.6666666666668 1000 301 1000 312.5C1000 324 990.6666666666666 333.3333333333334 979.1666666666666 333.3333333333334" />
    </font>
</defs>
</svg>
